百度云资源论坛

 找回密码
 立即注册

气球 Balloon.2019.1080p.BluRay.x264-YAMG 17.90GB

[复制链接]
admin 发表于 2021-11-30 17:48:55 | 显示全部楼层 |阅读模式
气球 Balloon.2019.1080p.BluRay.x264-YAMG 17.90GB                                                                                                                                                                              -->
帖子完整标题:气球 Balloon.2019.1080p.BluRay.x264-YAMG 17.90GB





◎译  名 Balloon/???????????/羊飼いと風船
◎片  名 气球
◎年  代 2019
◎产  地 中国大陆
◎类  别 剧情
◎语  言 藏语
◎上映日期 2019-08-30(威尼斯电影节) / 2020-11-20(中国大陆)
◎豆瓣评分 7.7/10 from 72621 users
◎ 
◎片  长 102分钟
◎导  演 万玛才旦 Pema Tseden
◎编  剧 万玛才旦 Pema Tseden
◎主  演 索朗旺姆 Sonam Wangmo
     金巴 Jinpa
     杨秀措 Yangshik Tso

◎标  签 万玛才旦 | 西藏 | 文艺 | 藏语 | 剧情 | 中国电影 | 中国 | 大陆

◎简  介

  《气球》故事发生在藏地,讲述灵魂与现实的紧张关系。
  
  主人公达杰一家因一只普通的避孕套卷入了一系列尴尬而又难以抉择的事件当中,他们原本宁静的日常生活被彻底打破,生老病死如日月流转,当灵魂遭遇现实的挑战,该如何抉择?

◎获奖情况

  第76届威尼斯电影节 ?(2019)
  地平线单元奖最佳影片(提名) 万玛才旦
  
  第23届上海国际电影节 ?(2020)
  电影频道传媒大奖最受传媒关注导演 万玛才旦
  电影频道传媒大奖最受传媒关注编剧 万玛才旦
  电影频道传媒大奖(提名) 万玛才旦
  
  第14届亚洲电影大奖 ?(2020)
  最佳导演(提名) 万玛才旦
  最佳男配角(提名) 金巴
  最佳编剧(提名) 万玛才旦
  最佳摄影(提名) 吕松野
  
  第3届平遥国际电影展 ?(2019)
  影展之最单元最受欢迎影片(提名) 万玛才旦
  
  第2届海南岛国际电影节 ?(2019)
  金椰奖最佳影片奖
  金椰奖最佳女演员奖 索朗旺姆
  
  第7届豆瓣电影年度榜单 ?(2020)
  评分最高的华语电影(提名)
Video
ID             : 1
Format           : AVC
Format/Info          : Advanced Video Codec
Format profile         :
Format settings        : CABAC / 4 Ref Frames
Format settings, CABAC       : Yes
Format settings, Reference frames  : 4 frames
Codec ID           : V_MPEG4/ISO/AVC
Duration           : 1 h 42 min
Bit rate           : 22.1 Mb/s
Width            : 1 920 pixels
Height           : 1 036 pixels
Display aspect ratio       : 1.85:1
Frame rate mode        : Constant
Frame rate           : 24.000 FPS
Color space          : YUV
Chroma subsampling       : 4:2:0
Bit depth          : 8 bits
Scan type          : Progressive
Bits/(Pixel*Frame)       : 0.463
Stream size          : 15.9 GiB (89%)
Writing library        : x264 core 164 r3075 66a5bc1
Encoding settings        : cabac=1 / ref=4 / deblock=1:-3:-3 / analyse=0x3:0x133 / me=umh / subme=10 / psy=1 / psy_rd=1.00:0.00 / mixed_ref=1 / me_range=32 / chroma_me=1 / trellis=2 / 8x8dct=1 / cqm=0 / deadzone=21,11 / fast_pskip=0 / chroma_qp_offset=-2 / threads=24 / lookahead_threads=4 / sliced_threads=0 / nr=0 / decimate=0 / interlaced=0 / bluray_compat=0 / constrained_intra=0 / bframes=8 / b_pyramid=2 / b_adapt=2 / b_bias=0 / direct=3 / weightb=1 / open_gop=0 / weightp=2 / keyint=250 / keyint_min=24 / scenecut=40 / intra_refresh=0 / rc=crf / mbtree=0 / crf=17.0 / qcomp=0.60 / qpmin=0 / qpmax=69 / qpstep=4 / ip_ratio=1.40 / pb_ratio=1.30 / aq=3:0.60
Language           : English
Default            : Yes
Forced           : No
Color range          : Limited
Matrix coefficients        : BT.709

Audio
ID             : 2
Format           : DTS XLL
Format/Info          : Digital Theater Systems
Commercial name        : DTS-HD Master Audio
Codec ID           : A_DTS
Duration           : 1 h 42 min
Bit rate mode          : Variable
Bit rate           : 2 774 kb/s
Channel(s)           : 8 channels
Channel layout         : C L R LFE Lb Rb Lss Rss
Sampling rate          : 48.0 kHz
Frame rate           : 93.750 FPS (512 SPF)
Bit depth          : 16 bits
Compression mode         : Lossless
Stream size          : 1.99 GiB (11%)
Title            : Tibetan
Language           : Tibetan
Default            : Yes
Forced           : No

Text #1
ID             : 3
Format           : UTF-8
Codec ID           : S_TEXT/UTF8
Codec ID/Info          : UTF-8 Plain Text
Duration           : 1 h 36 min
Bit rate           : 26 b/s
Count of elements        : 916
Stream size          : 18.9 KiB (0%)
Title            : English Forced
Language           : English
Default            : Yes
Forced           : Yes

Text #2
ID             : 4
Format           : PGS
Muxing mode          : zlib
Codec ID           : S_HDMV/PGS
Codec ID/Info          : Picture based subtitle format used on BDs/HD-DVDs
Duration           : 1 h 36 min
Bit rate           : 17.9 kb/s
Count of elements        : 1715
Stream size          : 12.4 MiB (0%)
Title            : English Forced PGS
Language           : English
Default            : No
Forced           : No

Text #3
ID             : 5
Format           : PGS
Muxing mode          : zlib
Codec ID           : S_HDMV/PGS
Codec ID/Info          : Picture based subtitle format used on BDs/HD-DVDs
Duration           : 1 h 36 min
Bit rate           : 14.3 kb/s
Count of elements        : 1716
Stream size          : 9.94 MiB (0%)
Title            : Traditional Chinese PGS
Language           : Chinese
Default            : No
Forced           : No

Menu
00:00:00.000         : en:Chapter 01
00:08:34.917         : en:Chapter 02
00:20:13.000         : en:Chapter 03
00:27:57.625         : en:Chapter 04
00:37:27.917         : en:Chapter 05
00:51:13.708         : en:Chapter 06
01:02:41.500         : en:Chapter 07
01:08:47.542         : en:Chapter 08
01:17:05.750         : en:Chapter 09
01:24:58.250         : en:Chapter 10
01:33:20.375         : en:Chapter 11
01:39:45.292         : en:Chapter 12






                                                                  
                                                                                                                                                                                                                                                                                 
61920270e746cd468bf75eb689245b34.torrent (23.08 KB, 下载次数: 0)

回复

使用道具 举报

小黑屋|百度云资源分享吧 ( 京ICP备15014721号-2 )

本网站所有资源来自网络,如无意中侵犯了您的权益,请发邮件至 [email protected],立即清除相关链接

GMT+8, 2022-12-7 04:36 , Processed in 0.056740 second(s), 27 queries .

Powered by Discuz! X3.2

© 2001-2013 Comsenz Inc.

快速回复 返回顶部 返回列表