百度云资源论坛

 找回密码
 立即注册

宇宙大战争 Battle.in.Outer.Space.1959.REAL.1080p.BluRay.x264-YAMG 9.98GB

[复制链接]
admin 发表于 2021-11-30 17:48:55 | 显示全部楼层 |阅读模式
宇宙大战争 Battle.in.Outer.Space.1959.REAL.1080p.BluRay.x264-YAMG 9.98GB                                                                                                                                                                              -->
帖子完整标题:宇宙大战争 Battle.in.Outer.Space.1959.REAL.1080p.BluRay.x264-YAMG 9.98GB





◎译  名 宇宙大战争/Battle in Outer Space/宇宙大戰爭
◎片  名 宇宙大戦争
◎年  代 1959
◎产  地 日本
◎类  别 科幻
◎语  言 英语,日语
◎上映日期 1959-12-26
◎豆瓣评分 /10 from 0 users
◎ 
◎片  长 Japan: 93 分钟
◎导  演 本多猪四郎Ishir? Honda
◎编  剧 丘见丈二郎 Jojiro Okami / 关泽新一 Shinichi Sekizawa
◎主  演 哈罗德·康韦 Harold Conway
     手塚胜巳 Katsumi Tezuka
     泽村伊纪雄 Ikio Sawamura
     千田是也 Koreya Senda
     土屋嘉男 Yoshio Tsuchiya
     堤康久 Yasuhisa Tsutsumi
     野村浩三 K?z? Nomura
     高田稔 Minoru Takada
     桐野洋雄 Nadao Kirino
     安西乡子 Ky?ko Anzai
     伊藤久哉 Hisaya Ito
     村上冬树 Fuyuki Murakami
     池部良 Ryo Ikebe
     熊谷卓三 Takuz? Kumagai

◎标  签 日本电影 | 特摄 | 日本 | 科幻 | 1959 | 本多豬四郎 | 电影 | 本多猪四郎

◎简  介

  超低温下で重力がなくなる“冷却線“を使って、宇宙人?ナタールが地球侵略を開始した。地球の各地では、鉄橋が光りながら空中へ浮き上がったり、汽船が山に激突したり、海が凍って空に逆流したりと奇怪な事件が次々に起こる。科学者たちのグループは冷却線の攻撃に対抗すべく、熱線砲を開発、彼らの基地があると思われる月へと向かうが……。熱線砲を抱えて月へ出発するスピップ号、途中出くわす宇宙ステーション、そしてナタールの円盤群など、宇宙空間を舞台に特技監督?円谷英二の腕が全編に冴えわたったSF映画。1959年の製作とは思えない凝ったディテールと凄まじいアクションが魅力。
Video
ID             : 1
Format           : AVC
Format/Info          : Advanced Video Codec
Format profile         :
Format settings        : CABAC / 5 Ref Frames
Format settings, CABAC       : Yes
Format settings, Reference frames  : 5 frames
Codec ID           : V_MPEG4/ISO/AVC
Duration           : 1 h 30 min
Bit rate           : 13.8 Mb/s
Width            : 1 920 pixels
Height           : 816 pixels
Display aspect ratio       : 2.35:1
Frame rate mode        : Constant
Frame rate           : 23.976 (24000/1001/189150) FPS
Color space          : YUV
Chroma subsampling       : 4:2:0
Bit depth          : 8 bits
Scan type          : Progressive
Bits/(Pixel*Frame)       : 0.367
Stream size          : 8.69 GiB (87%)
Writing library        : x264 core 164 r3065 ae03d92
Encoding settings        : cabac=1 / ref=5 / deblock=1:-3:-3 / analyse=0x3:0x133 / me=umh / subme=10 / psy=1 / psy_rd=1.00:0.00 / mixed_ref=1 / me_range=32 / chroma_me=1 / trellis=2 / 8x8dct=1 / cqm=0 / deadzone=21,11 / fast_pskip=0 / chroma_qp_offset=-2 / threads=24 / lookahead_threads=4 / sliced_threads=0 / nr=0 / decimate=0 / interlaced=0 / bluray_compat=0 / constrained_intra=0 / bframes=8 / b_pyramid=2 / b_adapt=2 / b_bias=0 / direct=3 / weightb=1 / open_gop=0 / weightp=2 / keyint=250 / keyint_min=23 / scenecut=40 / intra_refresh=0 / rc=crf / mbtree=0 / crf=17.0 / qcomp=0.60 / qpmin=0 / qpmax=69 / qpstep=4 / ip_ratio=1.40 / pb_ratio=1.30 / aq=3:0.60
Language           : English
Default            : Yes
Forced           : No
Color range          : Limited
Matrix coefficients        : BT.709

Audio #1
ID             : 2
Format           : FLAC
Format/Info          : Free Lossless Audio Codec
Codec ID           : A_FLAC
Duration           : 1 h 30 min
Bit rate mode          : Variable
Bit rate           : 1 184 kb/s
Channel(s)           : 2 channels
Channel layout         : L R
Sampling rate          : 48.0 kHz
Frame rate           : 11.719 FPS (4096 SPF)
Bit depth          : 24 bits
Compression mode         : Lossless
Stream size          : 766 MiB (7%)
Title            : Japanese
Writing library        : libFLAC 1.3.3 (UTC 2019-08-04)
Language           : Japanese
Default            : Yes
Forced           : No

Audio #2
ID             : 3
Format           : FLAC
Format/Info          : Free Lossless Audio Codec
Codec ID           : A_FLAC
Duration           : 1 h 30 min
Bit rate mode          : Variable
Bit rate           : 731 kb/s
Channel(s)           : 2 channels
Channel layout         : L R
Sampling rate          : 48.0 kHz
Frame rate           : 11.719 FPS (4096 SPF)
Bit depth          : 24 bits
Compression mode         : Lossless
Stream size          : 473 MiB (5%)
Title            : English
Writing library        : libFLAC 1.3.3 (UTC 2019-08-04)
Language           : English
Default            : No
Forced           : No

Audio #3
ID             : 4
Format           : AAC LC
Format/Info          : Advanced Audio Codec Low Complexity
Codec ID           : A_AAC-2
Duration           : 1 h 30 min
Bit rate           : 96.0 kb/s
Channel(s)           : 2 channels
Channel layout         : L R
Sampling rate          : 48.0 kHz
Frame rate           : 46.875 FPS (1024 SPF)
Compression mode         : Lossy
Delay relative to video      : 20 ms
Stream size          : 61.4 MiB (1%)
Title            : Commentary
Language           : English
Default            : No
Forced           : No

Text #1
ID             : 5
Format           : UTF-8
Codec ID           : S_TEXT/UTF8
Codec ID/Info          : UTF-8 Plain Text
Duration           : 1 h 29 min
Bit rate           : 40 b/s
Count of elements        : 713
Stream size          : 26.8 KiB (0%)
Title            : English Forced
Language           : English
Default            : Yes
Forced           : Yes

Text #2
ID             : 6
Format           : UTF-8
Codec ID           : S_TEXT/UTF8
Codec ID/Info          : UTF-8 Plain Text
Duration           : 1 h 29 min
Bit rate           : 45 b/s
Count of elements        : 872
Stream size          : 30.2 KiB (0%)
Title            : English SDH
Language           : English
Default            : No
Forced           : No

Text #3
ID             : 7
Format           : PGS
Muxing mode          : zlib
Codec ID           : S_HDMV/PGS
Codec ID/Info          : Picture based subtitle format used on BDs/HD-DVDs
Duration           : 1 h 29 min
Bit rate           : 21.4 kb/s
Count of elements        : 1426
Stream size          : 13.7 MiB (0%)
Title            : English Forced PGS
Language           : English
Default            : No
Forced           : No

Text #4
ID             : 8
Format           : PGS
Muxing mode          : zlib
Codec ID           : S_HDMV/PGS
Codec ID/Info          : Picture based subtitle format used on BDs/HD-DVDs
Duration           : 1 h 29 min
Bit rate           : 24.8 kb/s
Count of elements        : 1744
Stream size          : 15.9 MiB (0%)
Title            : English SDH PGS
Language           : English
Default            : No
Forced           : No

Menu
00:00:00.000         : Chapter 01
00:10:00.600         : Chapter 02
00:20:01.200         : Chapter 03
00:30:01.800         : Chapter 04
00:40:02.400         : Chapter 05
00:50:03.000         : Chapter 06
01:00:03.600         : Chapter 07
01:10:04.200         : Chapter 08
01:20:04.800         : Chapter 09
01:30:05.400         : Chapter 10






                                                                  
                                                                                                                                                                                                                                                                                 
b1a3d9295bb7e26142b3f28f0fc1554d.torrent (25.71 KB, 下载次数: 0)

回复

使用道具 举报

小黑屋|百度云资源分享吧 ( 京ICP备15014721号-2 )

本网站所有资源来自网络,如无意中侵犯了您的权益,请发邮件至 [email protected],立即清除相关链接

GMT+8, 2022-12-7 04:59 , Processed in 0.062049 second(s), 31 queries .

Powered by Discuz! X3.2

© 2001-2013 Comsenz Inc.

快速回复 返回顶部 返回列表