百度云资源论坛

 找回密码
 立即注册

请寻找我 Bring.Me.Home.2019.PROPER.720p.BluRay.x264-YAMG 2.87GB

[复制链接]
admin 发表于 2021-11-30 19:20:38 | 显示全部楼层 |阅读模式
请寻找我 Bring.Me.Home.2019.PROPER.720p.BluRay.x264-YAMG 2.87GB                                                                                                                                                                              -->
帖子完整标题:请寻找我 Bring.Me.Home.2019.PROPER.720p.BluRay.x264-YAMG 2.87GB




◎译  名 请寻找我/Bring Me Home/复仇母亲(港/台)/找到我/来找我/请来找我
◎片  名 ?? ???
◎年  代 2019
◎产  地 韩国
◎类  别 惊悚 / 犯罪
◎语  言 韩语
◎上映日期 2019-09-05(多伦多电影节) / 2019-11-27(韩国)
◎豆瓣评分 6.6/10 from 6299 users
◎ 
◎片  长 108分钟
◎导  演 金承宇 Seung-woo Kim
◎编  剧 金承宇 Seung-woo Kim
◎主  演 李英爱 Yeong-ae Lee
     刘在明 Jae-myung Yoo
     李源根 Won-geun Lee
     朴海俊 Hea-jun Park
     金伊敬 Yi-kyung Kim
     白珠熙 JuHee Baek
     郑俊元 Joon-won Jeong
     韩哲宇 Han Chul-woo
     许栋元 Heo Dong-won
     李杭娜 Hang-na Lee
     李时宇 Si-woo Lee
     金泰律 Tae-yool Kim
     朴庆惠 Gyeong-hye Park
     郑爱华 Ae-hwa Jung
     徐贤宇 Seo Hyeon-woo

◎标  签 李英爱 | 犯罪 | 韩国 | 人性 | 韩国电影 | 惊悚 | 孩子 | 2019

◎简  介

  闊別大銀幕14年,大長今李英愛強勢回歸,飾演一位瀕臨崩潰邊緣的母親,誓要尋回被擄走的兒子。兒子失蹤6年,赫然傳來疑是孩子下落的消息,母親決定隻身走到漁村,希望找出一個被黑道家族控制的小孩,查看他是否失散多年的兒子。奈何冷血的惡人想把孩子留下當生財工具,將她拒諸於門外。母親唯有在雷雨交加的晚上,以極端手段再闖虎穴。首次執導的金勝友,營造張力到家,描繪由心而發的暴力,教人觸目驚心
Video
ID             : 1
Format           : AVC
Format/Info          : Advanced Video Codec
Format profile         :
Format settings        : CABAC / 12 Ref Frames
Format settings, CABAC       : Yes
Format settings, Reference frames  : 12 frames
Codec ID           : V_MPEG4/ISO/AVC
Duration           : 1 h 48 min
Bit rate           : 3 133 kb/s
Width            : 1 280 pixels
Height           : 532 pixels
Display aspect ratio       : 2.40:1
Frame rate mode        : Constant
Frame rate           : 24.000 FPS
Color space          : YUV
Chroma subsampling       : 4:2:0
Bit depth          : 8 bits
Scan type          : Progressive
Bits/(Pixel*Frame)       : 0.192
Stream size          : 2.37 GiB (83%)
Writing library        : x264 core 164 r3075 66a5bc1
Encoding settings        : cabac=1 / ref=12 / deblock=1:-3:-3 / analyse=0x3:0x133 / me=umh / subme=10 / psy=1 / psy_rd=1.00:0.00 / mixed_ref=1 / me_range=32 / chroma_me=1 / trellis=2 / 8x8dct=1 / cqm=0 / deadzone=21,11 / fast_pskip=0 / chroma_qp_offset=-2 / threads=17 / lookahead_threads=2 / sliced_threads=0 / nr=0 / decimate=0 / interlaced=0 / bluray_compat=0 / constrained_intra=0 / bframes=8 / b_pyramid=2 / b_adapt=2 / b_bias=0 / direct=3 / weightb=1 / open_gop=0 / weightp=2 / keyint=250 / keyint_min=24 / scenecut=40 / intra_refresh=0 / rc=crf / mbtree=0 / crf=17.0 / qcomp=0.60 / qpmin=0 / qpmax=69 / qpstep=4 / ip_ratio=1.40 / pb_ratio=1.30 / aq=3:0.60
Language           : English
Default            : Yes
Forced           : No
Color range          : Limited
Matrix coefficients        : BT.709

Audio
ID             : 2
Format           : AC-3
Format/Info          : Audio Coding 3
Commercial name        : Dolby Digital
Format settings        : Dolby Surround EX
Codec ID           : A_AC3
Duration           : 1 h 48 min
Bit rate mode          : Constant
Bit rate           : 640 kb/s
Channel(s)           : 6 channels
Channel layout         : L R C LFE Ls Rs
Sampling rate          : 48.0 kHz
Frame rate           : 31.250 FPS (1536 SPF)
Compression mode         : Lossy
Stream size          : 495 MiB (17%)
Title            : Korean
Language           : Korean
Service kind         : Complete Main
Default            : Yes
Forced           : No

Text #1
ID             : 3
Format           : UTF-8
Codec ID           : S_TEXT/UTF8
Codec ID/Info          : UTF-8 Plain Text
Duration           : 1 h 41 min
Bit rate           : 34 b/s
Count of elements        : 1047
Stream size          : 25.4 KiB (0%)
Title            : English Forced
Language           : English
Default            : Yes
Forced           : Yes

Text #2
ID             : 4
Format           : PGS
Muxing mode          : zlib
Codec ID           : S_HDMV/PGS
Codec ID/Info          : Picture based subtitle format used on BDs/HD-DVDs
Duration           : 1 h 41 min
Bit rate           : 22.6 kb/s
Count of elements        : 2080
Stream size          : 16.4 MiB (1%)
Title            : English Forced PGS
Language           : English
Default            : No
Forced           : No

Text #3
ID             : 5
Format           : PGS
Muxing mode          : zlib
Codec ID           : S_HDMV/PGS
Codec ID/Info          : Picture based subtitle format used on BDs/HD-DVDs
Duration           : 1 h 41 min
Bit rate           : 22.8 kb/s
Count of elements        : 2078
Stream size          : 16.5 MiB (1%)
Title            : Traditional Chinese PGS
Language           : Chinese
Default            : No
Forced           : No

Menu
00:00:00.000         : en:Chapter 01
00:06:36.833         : en:Chapter 02
00:10:51.167         : en:Chapter 03
00:15:37.917         : en:Chapter 04
00:20:57.917         : en:Chapter 05
00:25:46.208         : en:Chapter 06
00:30:24.958         : en:Chapter 07
00:35:55.375         : en:Chapter 08
00:40:23.458         : en:Chapter 09
00:48:00.250         : en:Chapter 10
00:51:40.208         : en:Chapter 11
00:55:46.625         : en:Chapter 12
01:00:46.833         : en:Chapter 13
01:04:40.000         : en:Chapter 14
01:09:03.625         : en:Chapter 15
01:18:41.333         : en:Chapter 16
01:23:03.042         : en:Chapter 17
01:28:46.583         : en:Chapter 18
01:35:17.708         : en:Chapter 19
01:43:15.125         : en:Chapter 20






                                                                  
                                                                                                                                                                                                                                                                                 
fb0ca4d9a83cbacbb09df4419606052a.torrent (29.4 KB, 下载次数: 0)

回复

使用道具 举报

小黑屋|百度云资源分享吧 ( 京ICP备15014721号-2 )

本网站所有资源来自网络,如无意中侵犯了您的权益,请发邮件至 [email protected],立即清除相关链接

GMT+8, 2022-12-2 17:00 , Processed in 0.063317 second(s), 31 queries .

Powered by Discuz! X3.2

© 2001-2013 Comsenz Inc.

快速回复 返回顶部 返回列表