百度云资源论坛

 找回密码
 立即注册

悬崖之上 Cliff.Walkers.2021.720p.BluRay.x264-USURY 3.87GB

[复制链接]
admin 发表于 2021-11-30 19:20:38 | 显示全部楼层 |阅读模式
悬崖之上 Cliff.Walkers.2021.720p.BluRay.x264-USURY 3.87GB                                                                                                                                                                              -->
帖子完整标题:悬崖之上 Cliff.Walkers.2021.720p.BluRay.x264-USURY 3.87GB





◎译  名 Cliff Walkers/Impasse
◎片  名 悬崖之上
◎年  代 2021
◎产  地 中国大陆,中国香港
◎类  别 剧情 / 动作 / 悬疑
◎语  言 汉语普通话,英语,俄语
◎上映日期 2021-04-30(中国大陆)
◎豆瓣评分 7.6/10 from 579334 users
◎ 
◎片  长 120分钟
◎导  演 张艺谋 Yimou Zhang
◎编  剧 全勇先 Yongxian Quan / 张艺谋 Yimou Zhang / 潘依然 Yiran Pan
◎主  演 张译 Yi Zhang
     于和伟 Hewei Yu
     秦海璐 Hailu Qin
     朱亚文 Yawen Zhu
     刘浩存 Haocun Liu
     倪大红 Dahong Ni
     李乃文 Naiwen Li
     余皑磊 Ailei Yu
     飞凡 Fan Fei
     雷佳音 Jiayin Lei
     沙溢 Yi Sha
     韩昊霖 Haolin Han
     赵毅 Yi Zhao
     安冬 Dong An
     封新天 Xintian Feng
     齐羽嘉 Yujia Qi
     芮丹尼 Danny Ray
     纪焕博 Rock Ji
     马睿瀚 Ruihan Ma
     松天硕 Tianshuo Song
     牛晓宁 Xiaoning Niu
     丁子迪 Zidi Ding
     白恩 En Bai
     逯长恩 Chang'en Lu
     袁红阳 Hongyang Yuan
     陈语桐 Yutong Chen
     燕磊 Lei Yan
     曹瑞 Rui Cao
     陈永胜 Yongsheng Chen
     王乃训 Naixun Wang
     冯瓅 Li Feng

◎标  签 谍战 | 张艺谋 | 悬疑 | 于和伟 | 剧情 | 中国大陆 | 2021 | 刘浩存

◎简  介

  上世纪三十年代,四位曾在苏联接受特训的共产党特工组成任务小队,回国执行代号为“乌特拉”的秘密行动。由于叛徒的出卖,他们从跳伞降落的第一刻起, 就已置身于敌人布下的罗网之中。同志能否脱身,任务能否完成,雪一直下,立于“悬崖之上”的行动小组面临严峻考验。

◎获奖情况

  第15届亚洲电影大奖 ?(2021)
  最佳男配角(提名) 余皑磊
  最佳女配角(提名) 秦海璐
  最佳摄影(提名) 赵小丁
  最佳剪接(提名) 李永一
  最佳原创音乐(提名) 曹永旭
  最佳造型设计(提名) 陈敏正
Video
ID             : 1
Format           : AVC
Format/Info          : Advanced Video Codec
Format profile         :
Format settings        : CABAC / 12 Ref Frames
Format settings, CABAC       : Yes
Format settings, Reference frames  : 12 frames
Codec ID           : V_MPEG4/ISO/AVC
Duration           : 2 h 0 min
Bit rate           : 3 938 kb/s
Width            : 1 280 pixels
Height           : 538 pixels
Display aspect ratio       : 2.40:1
Frame rate mode        : Constant
Frame rate           : 24.000 FPS
Color space          : YUV
Chroma subsampling       : 4:2:0
Bit depth          : 8 bits
Scan type          : Progressive
Bits/(Pixel*Frame)       : 0.238
Stream size          : 3.31 GiB (86%)
Writing library        : x264 core 164 r3075 66a5bc1
Encoding settings        : cabac=1 / ref=12 / deblock=1:-3:-3 / analyse=0x3:0x133 / me=umh / subme=10 / psy=1 / psy_rd=1.00:0.15 / mixed_ref=1 / me_range=24 / chroma_me=1 / trellis=2 / 8x8dct=1 / cqm=0 / deadzone=21,11 / fast_pskip=1 / chroma_qp_offset=-3 / threads=17 / lookahead_threads=2 / sliced_threads=0 / nr=0 / decimate=1 / interlaced=0 / bluray_compat=0 / constrained_intra=0 / bframes=8 / b_pyramid=2 / b_adapt=2 / b_bias=0 / direct=3 / weightb=1 / open_gop=0 / weightp=2 / keyint=250 / keyint_min=24 / scenecut=40 / intra_refresh=0 / rc_lookahead=60 / rc=crf / mbtree=1 / crf=17.0 / qcomp=0.60 / qpmin=0 / qpmax=69 / qpstep=4 / ip_ratio=1.40 / aq=3:0.60
Language           : English
Default            : Yes
Forced           : No

Audio
ID             : 2
Format           : AC-3
Format/Info          : Audio Coding 3
Commercial name        : Dolby Digital
Format settings        : Dolby Surround EX
Codec ID           : A_AC3
Duration           : 2 h 0 min
Bit rate mode          : Constant
Bit rate           : 640 kb/s
Channel(s)           : 6 channels
Channel layout         : L R C LFE Ls Rs
Sampling rate          : 48.0 kHz
Frame rate           : 31.250 FPS (1536 SPF)
Compression mode         : Lossy
Stream size          : 551 MiB (14%)
Title            : Mandarin
Language           : Chinese
Service kind         : Complete Main
Default            : Yes
Forced           : No

Text #1
ID             : 3
Format           : UTF-8
Codec ID           : S_TEXT/UTF8
Codec ID/Info          : UTF-8 Plain Text
Duration           : 1 h 51 min
Bit rate           : 23 b/s
Count of elements        : 990
Stream size          : 19.5 KiB (0%)
Title            : English
Language           : English
Default            : Yes
Forced           : Yes

Text #2
ID             : 4
Format           : PGS
Muxing mode          : zlib
Codec ID           : S_HDMV/PGS
Codec ID/Info          : Picture based subtitle format used on BDs/HD-DVDs
Duration           : 1 h 51 min
Bit rate           : 6 988 b/s
Count of elements        : 1961
Stream size          : 5.60 MiB (0%)
Title            : English
Language           : English
Default            : No
Forced           : No

Text #3
ID             : 5
Format           : PGS
Muxing mode          : zlib
Codec ID           : S_HDMV/PGS
Codec ID/Info          : Picture based subtitle format used on BDs/HD-DVDs
Duration           : 1 h 51 min
Bit rate           : 8 019 b/s
Count of elements        : 1961
Stream size          : 6.42 MiB (0%)
Title            : Chinese (traditional)
Language           : Chinese
Default            : No
Forced           : No

Text #4
ID             : 6
Format           : PGS
Muxing mode          : zlib
Codec ID           : S_HDMV/PGS
Codec ID/Info          : Picture based subtitle format used on BDs/HD-DVDs
Duration           : 1 h 51 min
Bit rate           : 7 185 b/s
Count of elements        : 1961
Stream size          : 5.76 MiB (0%)
Title            : Chinese (simplified)
Language           : Chinese
Default            : No
Forced           : No

Menu
00:00:00.000         : en:00:00:00.000
00:06:37.792         : en:00:06:37.792
00:13:11.667         : en:00:13:11.667
00:31:31.708         : en:00:31:31.708
00:39:52.625         : en:00:39:52.625
00:45:52.792         : en:00:45:52.792
01:01:04.625         : en:01:01:04.625
01:21:12.667         : en:01:21:12.667
01:29:08.167         : en:01:29:08.167
01:39:49.458         : en:01:39:49.458
01:49:38.000         : en:01:49:38.000
01:53:54.958         : en:01:53:54.958






                                                                  
                                                                                                                                                                                                                                                                                 
f80833849cd6b93287321a8ba0f53e25.torrent (20.05 KB, 下载次数: 0)

回复

使用道具 举报

小黑屋|百度云资源分享吧 ( 京ICP备15014721号-2 )

本网站所有资源来自网络,如无意中侵犯了您的权益,请发邮件至 [email protected],立即清除相关链接

GMT+8, 2022-12-2 16:32 , Processed in 0.066282 second(s), 31 queries .

Powered by Discuz! X3.2

© 2001-2013 Comsenz Inc.

快速回复 返回顶部 返回列表