百度云资源论坛

 找回密码
 立即注册

沙丘行星/山寨版沙丘 Planet.Dune.2021.720p.BluRay.x264-FREEMAN 2.11GB

[复制链接]
admin 发表于 2021-11-30 19:20:38 | 显示全部楼层 |阅读模式
沙丘行星/山寨版沙丘 Planet.Dune.2021.720p.BluRay.x264-FREEMAN 2.11GB                                                                                                                                                                              -->
帖子完整标题:沙丘行星/山寨版沙丘 Planet.Dune.2021.720p.BluRay.x264-FREEMAN 2.11GB





◎译  名 沙丘行星/山寨版沙丘
◎片  名 Planet Dune
◎年  代 2021
◎产  地 美国
◎类  别 动作 / 科幻 / 冒险
◎语  言 英语
◎上映日期 2021-09-24(美国)
◎豆瓣评分 /10 from 0 users
◎ 
◎导  演 Glenn Campbell Glenn Campbell
◎主  演 肖恩·杨 Sean Young
     克拉克·穆尔 Clark Moore

◎标  签 科幻 | 山寨版 | 美国 | 五毛特效 | 2021 | 美剧&美国电影 | 圣母智商 | 肖恩·杨

◎简  介

  一个在沙漠星球上执行营救被困基地任务的船员发现自己被这个星球的顶级掠食者——巨型沙虫——追捕和攻击时,变得致命。
Video
ID             : 1
Format           : AVC
Format/Info          : Advanced Video Codec
Format profile         :
Format settings        : CABAC / 8 Ref Frames
Format settings, CABAC       : Yes
Format settings, Reference frames  : 8 frames
Codec ID           : V_MPEG4/ISO/AVC
Duration           : 1 h 26 min
Bit rate           : 2 825 kb/s
Width            : 1 280 pixels
Height           : 536 pixels
Display aspect ratio       : 2.40:1
Frame rate mode        : Constant
Frame rate           : 23.976 (24000/1001/189150) FPS
Color space          : YUV
Chroma subsampling       : 4:2:0
Bit depth          : 8 bits
Scan type          : Progressive
Bits/(Pixel*Frame)       : 0.172
Stream size          : 1.72 GiB (81%)
Writing library        : x264 core 164 r3075 66a5bc1
Encoding settings        : cabac=1 / ref=8 / deblock=1:-3:-3 / analyse=0x3:0x133 / me=umh / subme=9 / psy=1 / psy_rd=1.00:0.00 / mixed_ref=1 / me_range=16 / chroma_me=1 / trellis=2 / 8x8dct=1 / cqm=0 / deadzone=21,11 / fast_pskip=0 / chroma_qp_offset=-2 / threads=17 / lookahead_threads=1 / sliced_threads=0 / nr=0 / decimate=1 / interlaced=0 / bluray_compat=0 / constrained_intra=0 / bframes=3 / b_pyramid=2 / b_adapt=2 / b_bias=0 / direct=3 / weightb=1 / open_gop=0 / weightp=2 / keyint=250 / keyint_min=23 / scenecut=40 / intra_refresh=0 / rc_lookahead=60 / rc=crf / mbtree=1 / crf=17.0 / qcomp=0.60 / qpmin=0 / qpmax=69 / qpstep=4 / ip_ratio=1.40 / aq=3:1.00
Default            : Yes
Forced           : No
Color range          : Limited
Matrix coefficients        : BT.709

Audio
ID             : 2
Format           : AC-3
Format/Info          : Audio Coding 3
Commercial name        : Dolby Digital
Codec ID           : A_AC3
Duration           : 1 h 26 min
Bit rate mode          : Constant
Bit rate           : 640 kb/s
Channel(s)           : 6 channels
Channel layout         : L R C LFE Ls Rs
Sampling rate          : 48.0 kHz
Frame rate           : 31.250 FPS (1536 SPF)
Compression mode         : Lossy
Stream size          : 398 MiB (18%)
Language           : English
Service kind         : Complete Main
Default            : Yes
Forced           : No

Text
ID             : 3
Format           : PGS
Muxing mode          : zlib
Codec ID           : S_HDMV/PGS
Codec ID/Info          : Picture based subtitle format used on BDs/HD-DVDs
Duration           : 1 h 16 min
Bit rate           : 553 b/s
Count of elements        : 32
Stream size          : 308 KiB (0%)
Language           : German
Default            : No
Forced           : No

Menu
00:00:00.000         : en:00:00:00.000
00:09:21.436         : en:00:09:21.436
00:18:01.330         : en:00:18:01.330
00:29:52.833         : en:00:29:52.833
00:39:55.310         : en:00:39:55.310
00:49:41.478         : en:00:49:41.478
01:01:30.937         : en:01:01:30.937
01:12:14.205         : en:01:12:14.205
01:23:44.853         : en:01:23:44.853






                                                                  
                                                                                                                                                                                                                                                                                 
d70a6f86f8a873c33894e52b3db471a6.torrent (21.74 KB, 下载次数: 0)

回复

使用道具 举报

小黑屋|百度云资源分享吧 ( 京ICP备15014721号-2 )

本网站所有资源来自网络,如无意中侵犯了您的权益,请发邮件至 [email protected],立即清除相关链接

GMT+8, 2022-12-2 17:02 , Processed in 0.062173 second(s), 31 queries .

Powered by Discuz! X3.2

© 2001-2013 Comsenz Inc.

快速回复 返回顶部 返回列表