百度云资源论坛

 找回密码
 立即注册

唐人街探案3 Detective.Chinatown.3.2021.720p.BluRay.x264-YAMG 4.49GB

[复制链接]
admin 发表于 2021-11-30 19:20:38 | 显示全部楼层 |阅读模式
唐人街探案3 Detective.Chinatown.3.2021.720p.BluRay.x264-YAMG 4.49GB                                                                                                                                                                              -->
帖子完整标题:唐人街探案3 Detective.Chinatown.3.2021.720p.BluRay.x264-YAMG 4.49GB





◎译  名 Detective Chinatown 3/唐探3
◎片  名 唐人街探案3
◎年  代 2021
◎产  地 中国大陆,中国香港,日本
◎类  别 喜剧 / 悬疑
◎语  言 汉语普通话,日语,英语,泰语
◎上映日期 2021-02-12(中国大陆)
◎豆瓣评分 5.3/10 from 963134 users
◎ 
◎片  长 136分钟
◎导  演 陈思诚 Sicheng Chen
◎编  剧 陈思诚 Sicheng Chen / 张淳 Chun Zhang / 刘吾驷 Wusi Liu / 莲舟 Lianzhou / 严以宁 Yining Yan / 徐子豪 Nomy Xu
◎主  演 王宝强 Baoqiang Wang
     刘昊然 Haoran Liu
     妻夫木聪 Satoshi Tsumabuki
     托尼·贾 Tony Jaa
     长泽雅美 Masami Nagasawa
     染谷将太 Sh?ta Sometani
     铃木保奈美 Honami Suzuki
     浅野忠信 Tadanobu Asano
     三浦友和 Tomokazu Miura
     尚语贤 Yuxian Shang
     肖央 Yang Xiao
     张子枫 Zifeng Zhang
     邱泽 Roy Chiu
     张钧甯 Chun-Ning Chang
     马伯骞 Victor Ma
     程潇 Xiao Cheng
     陈哲远 Zheyuan Chen
     李明轩 Mingxuan Li
     崔雨鑫 Yuxin Cui
     张一白 Yibai Zhang
     文咏珊 Janice Man
     张熙然 Xiran Zhang
     克拉拉 Clara Lee
     树林伸 Shin Kibayashi
     刘德华 Andy Lau
     陈思诚 Sicheng Chen
     平山日和 Hirayama Motokazu
     奥田瑛二 Eiji Okuda
     六平直政 Naomasa Musaka
     酒向芳 Yoshi Sakou
     秋山成勋 Yoshihiro Akiyama
     桥本爱实 Manami Hashimoto
     长井短 Mijika Nagai
     宇治清高 Kiyotaka Uji
     张国强 Guoqiang Zhang
     大鹏 Chengpeng Dong
     陈祉希 Zhixi Chen
     林沐然 Muran Lin
     田代良德 Yoshinori Tashiro
     尚玄 Shogen
     下京庆子 Keiko Shimokyo
     松角洋平 Yohei Matsukado
     松浦佐知子 Sachiko Matsuura
     饭田孝男 Takao Handa
     谷手人 Tehito Tani
     古泽裕介 Yusuke Furusawa
     奥居元雅 Okui Motomasa

◎标  签 喜剧 | 推理 | 搞笑 | 悬疑 | 犯罪 | 2021 | 中国大陆 | 剧情

◎简  介

  继曼谷、纽约之后,东京再出大案。唐人街神探唐仁(王宝强 饰)、秦风(刘昊然 饰)受侦探野田昊(妻夫木聪 饰)的邀请前往破案。“CRIMASTER世界侦探排行榜”中的侦探们闻讯后也齐聚东京,加入挑战,而排名第一Q的现身,让这个大案更加扑朔迷离,一场亚洲最强神探之间的较量即将爆笑展开……

◎获奖情况

  第7届豆瓣电影年度榜单 ?(2020)
  最值得期待的华语电影
  
  第6届豆瓣电影年度榜单 ?(2019)
  最值得期待的华语电影
Video
ID             : 1
Format           : AVC
Format/Info          : Advanced Video Codec
Format profile         :
Format settings        : CABAC / 12 Ref Frames
Format settings, CABAC       : Yes
Format settings, Reference frames  : 12 frames
Codec ID           : V_MPEG4/ISO/AVC
Duration           : 2 h 16 min
Bit rate           : 4 031 kb/s
Width            : 1 280 pixels
Height           : 536 pixels
Display aspect ratio       : 2.40:1
Frame rate mode        : Constant
Frame rate           : 24.000 FPS
Color space          : YUV
Chroma subsampling       : 4:2:0
Bit depth          : 8 bits
Scan type          : Progressive
Bits/(Pixel*Frame)       : 0.245
Stream size          : 3.84 GiB (86%)
Writing library        : x264 core 164 r3075 66a5bc1
Encoding settings        : cabac=1 / ref=12 / deblock=1:-3:-3 / analyse=0x3:0x133 / me=umh / subme=10 / psy=1 / psy_rd=1.00:0.00 / mixed_ref=1 / me_range=32 / chroma_me=1 / trellis=2 / 8x8dct=1 / cqm=0 / deadzone=21,11 / fast_pskip=0 / chroma_qp_offset=-2 / threads=17 / lookahead_threads=2 / sliced_threads=0 / nr=0 / decimate=0 / interlaced=0 / bluray_compat=0 / constrained_intra=0 / bframes=8 / b_pyramid=2 / b_adapt=2 / b_bias=0 / direct=3 / weightb=1 / open_gop=0 / weightp=2 / keyint=250 / keyint_min=24 / scenecut=40 / intra_refresh=0 / rc=crf / mbtree=0 / crf=17.0 / qcomp=0.60 / qpmin=0 / qpmax=69 / qpstep=4 / ip_ratio=1.40 / pb_ratio=1.30 / aq=3:0.60
Language           : English
Default            : Yes
Forced           : No
Color range          : Limited
Matrix coefficients        : BT.709

Audio
ID             : 2
Format           : AC-3
Format/Info          : Audio Coding 3
Commercial name        : Dolby Digital
Format settings        : Dolby Surround EX
Codec ID           : A_AC3
Duration           : 2 h 16 min
Bit rate mode          : Constant
Bit rate           : 640 kb/s
Channel(s)           : 6 channels
Channel layout         : L R C LFE Ls Rs
Sampling rate          : 48.0 kHz
Frame rate           : 31.250 FPS (1536 SPF)
Compression mode         : Lossy
Stream size          : 624 MiB (14%)
Title            : Chinese
Language           : Chinese
Service kind         : Complete Main
Default            : Yes
Forced           : No

Text #1
ID             : 3
Format           : UTF-8
Codec ID           : S_TEXT/UTF8
Codec ID/Info          : UTF-8 Plain Text
Duration           : 2 h 8 min
Bit rate           : 57 b/s
Count of elements        : 2142
Stream size          : 54.4 KiB (0%)
Title            : English Forced
Language           : English
Default            : Yes
Forced           : Yes

Text #2
ID             : 4
Format           : PGS
Muxing mode          : zlib
Codec ID           : S_HDMV/PGS
Codec ID/Info          : Picture based subtitle format used on BDs/HD-DVDs
Duration           : 2 h 8 min
Bit rate           : 46.6 kb/s
Count of elements        : 3090
Stream size          : 42.8 MiB (1%)
Title            : English Forced PGS
Language           : English
Default            : No
Forced           : No

Text #3
ID             : 5
Format           : PGS
Muxing mode          : zlib
Codec ID           : S_HDMV/PGS
Codec ID/Info          : Picture based subtitle format used on BDs/HD-DVDs
Duration           : 2 h 8 min
Bit rate           : 36.2 kb/s
Count of elements        : 3105
Stream size          : 33.3 MiB (1%)
Title            : Traditional Chinese PGS
Language           : Chinese
Default            : No
Forced           : No

Text #4
ID             : 6
Format           : PGS
Muxing mode          : zlib
Codec ID           : S_HDMV/PGS
Codec ID/Info          : Picture based subtitle format used on BDs/HD-DVDs
Duration           : 2 h 8 min
Bit rate           : 35.4 kb/s
Count of elements        : 3105
Stream size          : 32.6 MiB (1%)
Title            : Simplified Chinese PGS
Language           : Chinese
Default            : No
Forced           : No

Menu
00:00:00.000         : en:Chapter 01
00:10:53.500         : en:Chapter 02
00:24:19.000         : en:Chapter 03
00:31:41.792         : en:Chapter 04
00:45:34.250         : en:Chapter 05
00:57:41.125         : en:Chapter 06
01:07:32.083         : en:Chapter 07
01:19:20.750         : en:Chapter 08
01:28:52.417         : en:Chapter 09
01:44:01.500         : en:Chapter 10
01:53:09.750         : en:Chapter 11
02:03:50.167         : en:Chapter 12





                                                                  
                                                                                                                                                                                                                                                                                 
cd98954a781fda406316c6e9dd8ab06a.torrent (23.19 KB, 下载次数: 0)

回复

使用道具 举报

小黑屋|百度云资源分享吧 ( 京ICP备15014721号-2 )

本网站所有资源来自网络,如无意中侵犯了您的权益,请发邮件至 [email protected],立即清除相关链接

GMT+8, 2022-12-7 04:11 , Processed in 0.063917 second(s), 31 queries .

Powered by Discuz! X3.2

© 2001-2013 Comsenz Inc.

快速回复 返回顶部 返回列表