百度云资源论坛

 找回密码
 立即注册

罗丝亦是朱莉 Rose.Plays.Julie.2019.720p.BluRay.x264-SCARE 2.20GB

[复制链接]
admin 发表于 2021-11-30 19:20:38 | 显示全部楼层 |阅读模式
罗丝亦是朱莉 Rose.Plays.Julie.2019.720p.BluRay.x264-SCARE 2.20GB                                                                                                                                                                              -->
帖子完整标题:罗丝亦是朱莉 Rose.Plays.Julie.2019.720p.BluRay.x264-SCARE 2.20GB





◎译  名 罗丝亦是朱莉
◎片  名 Rose Plays Julie
◎年  代 2019
◎产  地 爱尔兰
◎类  别 剧情
◎语  言 英语
◎上映日期 2019-10-03(伦敦电影节) / 2020-05-15(英国)
◎豆瓣评分 /10 from 0 users
◎ 
◎片  长 100分钟
◎主  演 安·斯凯利 Ann Skelly
     欧拉·布莱蒂 Orla Brady
     艾丹·吉伦 Aidan Gillen
     凯瑟琳·沃克 Catherine Walker
     赛迪·斯欧维奥 Sadie Soverall
     杰克·麦克维 Jack McEvoy
     Lochlainn O'Mearain Lochlainn O'Mearain

◎标  签 爱尔兰 | 2019 | 爱尔兰电影 | 电影 | BFI | 剧情 | LFF | 虐

◎简  介

  Writer/directors Joe Lawlor and Christine Molloy are back with a taut psychological thriller about a young woman who confronts a trauma from her past. See Rose Plays Julie in UK and Irish cinemas from 15 May 2020.
Video
ID             : 1
Format           : AVC
Format/Info          : Advanced Video Codec
Format profile         :
Format settings        : CABAC / 12 Ref Frames
Format settings, CABAC       : Yes
Format settings, Reference frames  : 12 frames
Codec ID           : V_MPEG4/ISO/AVC
Duration           : 1 h 40 min
Bit rate           : 2 475 kb/s
Width            : 1 280 pixels
Height           : 538 pixels
Display aspect ratio       : 2.40:1
Frame rate mode        : Constant
Frame rate           : 24.000 FPS
Color space          : YUV
Chroma subsampling       : 4:2:0
Bit depth          : 8 bits
Scan type          : Progressive
Bits/(Pixel*Frame)       : 0.150
Stream size          : 1.74 GiB (79%)
Writing library        : x264 core 164 r3065 ae03d92
Encoding settings        : cabac=1 / ref=12 / deblock=1:-3:-3 / analyse=0x3:0x133 / me=umh / subme=10 / psy=1 / psy_rd=1.20:0.00 / mixed_ref=1 / me_range=24 / chroma_me=1 / trellis=2 / 8x8dct=1 / cqm=0 / deadzone=21,11 / fast_pskip=0 / chroma_qp_offset=-2 / threads=17 / lookahead_threads=2 / sliced_threads=0 / nr=0 / decimate=0 / interlaced=0 / bluray_compat=0 / constrained_intra=0 / bframes=8 / b_pyramid=2 / b_adapt=2 / b_bias=0 / direct=3 / weightb=1 / open_gop=0 / weightp=2 / keyint=250 / keyint_min=24 / scenecut=40 / intra_refresh=0 / rc_lookahead=60 / rc=crf / mbtree=1 / crf=14.0 / qcomp=0.60 / qpmin=0 / qpmax=69 / qpstep=4 / ip_ratio=1.40 / aq=3:0.90
Default            : Yes
Forced           : No
Color range          : Limited
Matrix coefficients        : BT.709

Audio
ID             : 2
Format           : AC-3
Format/Info          : Audio Coding 3
Commercial name        : Dolby Digital
Codec ID           : A_AC3
Duration           : 1 h 40 min
Bit rate mode          : Constant
Bit rate           : 640 kb/s
Channel(s)           : 6 channels
Channel layout         : L R C LFE Ls Rs
Sampling rate          : 48.0 kHz
Frame rate           : 31.250 FPS (1536 SPF)
Compression mode         : Lossy
Stream size          : 461 MiB (20%)
Language           : English
Service kind         : Complete Main
Default            : Yes
Forced           : No

Text
ID             : 3
Format           : PGS
Muxing mode          : zlib
Codec ID           : S_HDMV/PGS
Codec ID/Info          : Picture based subtitle format used on BDs/HD-DVDs
Duration           : 1 h 35 min
Bit rate           : 18.3 kb/s
Count of elements        : 1452
Stream size          : 12.5 MiB (1%)
Title            : SDH
Language           : English
Default            : No
Forced           : No

Menu
00:00:00.000         : Chapter 01
00:08:16.792         : Chapter 02
00:15:45.333         : Chapter 03
00:24:51.917         : Chapter 04
00:32:26.625         : Chapter 05
00:39:59.167         : Chapter 06
00:48:26.583         : Chapter 07
00:56:19.875         : Chapter 08
01:04:57.750         : Chapter 09
01:12:56.667         : Chapter 10
01:21:19.625         : Chapter 11
01:26:31.333         : Chapter 12






                                                                  
                                                                                                                                                                                                                                                                                 
73f5a017cacb03031e104d381bf6b34e.torrent (22.73 KB, 下载次数: 0)

回复

使用道具 举报

小黑屋|百度云资源分享吧 ( 京ICP备15014721号-2 )

本网站所有资源来自网络,如无意中侵犯了您的权益,请发邮件至 [email protected],立即清除相关链接

GMT+8, 2022-12-2 17:24 , Processed in 0.063339 second(s), 31 queries .

Powered by Discuz! X3.2

© 2001-2013 Comsenz Inc.

快速回复 返回顶部 返回列表