百度云资源论坛

 找回密码
 立即注册

山洞人 Caveman.1981.iNTERNAL.720p.BluRay.x264-YAMG 5.67GB

[复制链接]
admin 发表于 2021-12-1 19:39:02 | 显示全部楼层 |阅读模式
山洞人 Caveman.1981.iNTERNAL.720p.BluRay.x264-YAMG 5.67GB                                                                                                                                                                              -->
帖子完整标题:山洞人 Caveman.1981.iNTERNAL.720p.BluRay.x264-YAMG 5.67GB





◎译  名 山洞人
◎片  名 Caveman
◎年  代 1981
◎产  地 美国
◎类  别 喜剧
◎语  言 英语
◎上映日期 1981-04-17
◎豆瓣评分 6.6/10 from 123 users
◎ 
◎片  长 91 分钟
◎导  演 卡尔·哥特列布 Carl Gottlieb
◎编  剧 卡尔·哥特列布 Carl Gottlieb / 鲁迪·德卢卡 Rudy De Luca
◎主  演 户田惠子 Keiko Toda
     埃弗里·施雷伯 Avery Schreiber
     林戈·斯塔尔 Ringo Starr
     杰克·吉尔福德 Jack Gilford
     谢莉·朗 Shelley Long
     芭芭拉·贝芝 Barbara Bach
     科克·哈伯特 Cork Hubbert
     John Matuszak John Matuszak
     卡尔·卢波利 Carl Lumbly
     理查德·莫尔 Richard Moll
     丹尼斯·奎德 Dennis Quaid

◎标  签 山洞人 | 喜剧 | 电影 | 1981 | 美国 | 原始部落 | 科幻 | 动画

◎简  介

  披头士鼓手林哥史达与芭芭拉·贝琪主演的一部原始时代喜剧,他们都扮演石器时代的山洞人。头脑有点笨笨的林哥竟然迷上了部落头目的女人,乃被逐出部落,他经历了种种有趣的奇遇之后,成功地串连了从其他洞穴中被逐出来的原始人,成立了一个属于他自己的部落。
Video
ID             : 1
Format           : AVC
Format/Info          : Advanced Video Codec
Format profile         :
Format settings        : CABAC / 9 Ref Frames
Format settings, CABAC       : Yes
Format settings, Reference frames  : 9 frames
Codec ID           : V_MPEG4/ISO/AVC
Duration           : 1 h 31 min
Bit rate           : 8 525 kb/s
Width            : 1 280 pixels
Height           : 696 pixels
Display aspect ratio       : 1.85:1
Frame rate mode        : Constant
Frame rate           : 23.976 (24000/1001/189150) FPS
Color space          : YUV
Chroma subsampling       : 4:2:0
Bit depth          : 8 bits
Scan type          : Progressive
Bits/(Pixel*Frame)       : 0.399
Stream size          : 5.47 GiB (96%)
Writing library        : x264 core 164 r3075 66a5bc1
Encoding settings        : cabac=1 / ref=9 / deblock=1:-3:-3 / analyse=0x3:0x133 / me=umh / subme=10 / psy=1 / psy_rd=1.00:0.00 / mixed_ref=1 / me_range=32 / chroma_me=1 / trellis=2 / 8x8dct=1 / cqm=0 / deadzone=21,11 / fast_pskip=0 / chroma_qp_offset=-2 / threads=22 / lookahead_threads=3 / sliced_threads=0 / nr=0 / decimate=0 / interlaced=0 / bluray_compat=0 / constrained_intra=0 / bframes=8 / b_pyramid=2 / b_adapt=2 / b_bias=0 / direct=3 / weightb=1 / open_gop=0 / weightp=2 / keyint=250 / keyint_min=23 / scenecut=40 / intra_refresh=0 / rc=crf / mbtree=0 / crf=17.0 / qcomp=0.60 / qpmin=0 / qpmax=69 / qpstep=4 / ip_ratio=1.40 / pb_ratio=1.30 / aq=3:0.60
Language           : English
Default            : Yes
Forced           : No
Color range          : Limited
Matrix coefficients        : BT.709

Audio
ID             : 2
Format           : FLAC
Format/Info          : Free Lossless Audio Codec
Codec ID           : A_FLAC
Duration           : 1 h 31 min
Bit rate mode          : Variable
Bit rate           : 320 kb/s
Channel(s)           : 2 channels
Channel layout         : L R
Sampling rate          : 48.0 kHz
Frame rate           : 11.719 FPS (4096 SPF)
Bit depth          : 16 bits
Compression mode         : Lossless
Stream size          : 210 MiB (4%)
Title            : English
Writing library        : libFLAC 1.3.3 (UTC 2019-08-04)
Language           : English
Default            : Yes
Forced           : No






                                                                  
                                                                                                                                                                                                                                                                                 
57d54b362e4e3faf7ddb3c64d99b5794.torrent (14.92 KB, 下载次数: 0)

回复

使用道具 举报

小黑屋|百度云资源分享吧 ( 京ICP备15014721号-2 )

本网站所有资源来自网络,如无意中侵犯了您的权益,请发邮件至 [email protected],立即清除相关链接

GMT+8, 2022-12-7 04:05 , Processed in 0.057216 second(s), 27 queries .

Powered by Discuz! X3.2

© 2001-2013 Comsenz Inc.

快速回复 返回顶部 返回列表