百度云资源论坛

 找回密码
 立即注册

致命感应 Malignant.2021.720p.BluRay.x264-VETO 4.59GB

[复制链接]
admin 发表于 2021-12-2 16:51:10 | 显示全部楼层 |阅读模式
致命感应 Malignant.2021.720p.BluRay.x264-VETO 4.59GB                                                                                                                                                                              -->
帖子完整标题:致命感应 Malignant.2021.720p.BluRay.x264-VETO 4.59GB





◎译  名 致命感应/Malignant Man/恶性/恶毒/恶煞(港)/疾厄(台)/肿瘤/肿瘤侠
◎片  名 Malignant
◎年  代 2021
◎产  地 美国,中国大陆
◎类  别 悬疑 / 恐怖
◎语  言 英语
◎上映日期 2021-09-01(法国) / 2021-09-10(美国)
◎豆瓣评分 6.8/10 from 55732 users
◎ 
◎片  长 112分钟
◎导  演 温子仁 James Wan
◎编  剧 阿克拉·库珀 Akela Cooper / 温子仁 James Wan / 英格丽·比苏 Ingrid Bisu
◎主  演 安娜贝拉·沃丽丝 Annabelle Wallis
     麦蒂·哈森 Maddie Hasson
     吴宇卫 George Young
     米歇尔·沃特 Michole White
     麦肯娜·格瑞丝 Mckenna Grace
     珍·路易莎·凯利 Jean Louisa Kelly
     苏珊娜·汤姆森 Susanna Thompson
     杰克·阿贝尔 Jake Abel
     杰奎琳·麦根斯 Jacqueline McKenzie
     克里斯蒂安·克莱门松 Christian Clemenson
     梅塞德斯·科隆 Mercedes Colon
     英格丽·比苏 Ingrid Bisu
     乔恩·李·布罗迪 Jon Lee Brody
     保拉·马绍尔 Paula Marshall
     佐伊·贝尔 Zoe Bell
     娜塔莉·萨福兰 Natalia Safran
     迈克·门德兹 Mike Mendez
     雷·蔡斯 Ray Chase
     帕翠西娅·维拉奎兹 Patricia Velasquez
     麦迪逊·沃尔夫 Madison Wolfe
     安迪·比恩 Andy Bean
     帕特里克·考克斯 Patrick Cox
     蕾妮·戴蒙德 Renee Diamond
     玛丽娜·马泽帕 Marina Mazepa
     基诺·蒙特斯诺斯 Gino Montesinos
     阿米尔·阿布莱拉 Amir AboulEla
     肖特·丽奈特·约翰逊 Shaunte Lynette Johnson
     杰苏斯·特鲁希略 Jesus Trujillo
     鲁本·普拉 Ruben Pla
     丹·拉莫斯 Dan Ramos
     丽莎·卡塔拉 Lisa Catara

◎标  签 恐怖 | 惊悚 | 悬疑 | 美国 | 血腥 | 2021 | 动作 | 科幻

◎简  介

  麦迪森(安娜贝拉·沃丽丝 Annabelle Wallis 饰)在梦中不断看到恐怖谋杀案现场的幻象,而这些幻象实际上是真实发生过的凶案,她决定挖掘真相和自己的过去,却发现这一切与一位名叫“盖博瑞”的魔鬼有关。
Video
ID             : 1
Format           : AVC
Format/Info          : Advanced Video Codec
Format profile         :
Format settings        : CABAC / 8 Ref Frames
Format settings, CABAC       : Yes
Format settings, Reference frames  : 8 frames
Codec ID           : V_MPEG4/ISO/AVC
Duration           : 1 h 51 min
Bit rate           : 5 212 kb/s
Width            : 1 280 pixels
Height           : 536 pixels
Display aspect ratio       : 2.40:1
Frame rate mode        : Constant
Frame rate           : 23.976 (24000/1001/189150) FPS
Color space          : YUV
Chroma subsampling       : 4:2:0
Bit depth          : 8 bits
Scan type          : Progressive
Bits/(Pixel*Frame)       : 0.317
Stream size          : 4.06 GiB (88%)
Writing library        : x264 core 164 r3075 66a5bc1
Encoding settings        : cabac=1 / ref=8 / deblock=1:-3:-3 / analyse=0x3:0x133 / me=umh / subme=9 / psy=1 / psy_rd=1.00:0.00 / mixed_ref=1 / me_range=16 / chroma_me=1 / trellis=2 / 8x8dct=1 / cqm=0 / deadzone=21,11 / fast_pskip=0 / chroma_qp_offset=-2 / threads=32 / lookahead_threads=2 / sliced_threads=0 / nr=0 / decimate=0 / interlaced=0 / bluray_compat=0 / constrained_intra=0 / bframes=3 / b_pyramid=2 / b_adapt=2 / b_bias=0 / direct=3 / weightb=1 / open_gop=0 / weightp=2 / keyint=250 / keyint_min=23 / scenecut=40 / intra_refresh=0 / rc=crf / mbtree=0 / crf=16.0 / qcomp=0.60 / qpmin=0 / qpmax=69 / qpstep=4 / ip_ratio=1.40 / pb_ratio=1.30 / aq=3:0.70
Language           : English
Default            : Yes
Forced           : No
Color range          : Limited
Matrix coefficients        : BT.709

Audio
ID             : 2
Format           : AC-3
Format/Info          : Audio Coding 3
Commercial name        : Dolby Digital
Codec ID           : A_AC3
Duration           : 1 h 51 min
Bit rate mode          : Constant
Bit rate           : 640 kb/s
Channel(s)           : 6 channels
Channel layout         : L R C LFE Ls Rs
Sampling rate          : 48.0 kHz
Frame rate           : 31.250 FPS (1536 SPF)
Compression mode         : Lossy
Stream size          : 511 MiB (11%)
Language           : English
Service kind         : Complete Main
Default            : Yes
Forced           : No

Text #1
ID             : 3
Format           : UTF-8
Codec ID           : S_TEXT/UTF8
Codec ID/Info          : UTF-8 Plain Text
Duration           : 1 h 45 min
Bit rate           : 35 b/s
Count of elements        : 934
Stream size          : 27.6 KiB (0%)
Title            : English (SRT)
Language           : English
Default            : No
Forced           : No

Text #2
ID             : 4
Format           : UTF-8
Codec ID           : S_TEXT/UTF8
Codec ID/Info          : UTF-8 Plain Text
Duration           : 1 h 47 min
Bit rate           : 47 b/s
Count of elements        : 1396
Stream size          : 37.4 KiB (0%)
Title            : English (SDH SRT)
Language           : English
Default            : No
Forced           : No

Text #3
ID             : 5
Format           : PGS
Muxing mode          : zlib
Codec ID           : S_HDMV/PGS
Codec ID/Info          : Picture based subtitle format used on BDs/HD-DVDs
Duration           : 1 h 47 min
Bit rate           : 29.3 kb/s
Count of elements        : 2792
Stream size          : 22.5 MiB (0%)
Title            : English (SDH)
Language           : English
Default            : No
Forced           : No

Text #4
ID             : 6
Format           : PGS
Muxing mode          : zlib
Codec ID           : S_HDMV/PGS
Codec ID/Info          : Picture based subtitle format used on BDs/HD-DVDs
Duration           : 1 h 50 min
Bit rate           : 19.1 kb/s
Count of elements        : 1740
Stream size          : 15.1 MiB (0%)
Title            : Spanish
Language           : Spanish
Default            : No
Forced           : No

Text #5
ID             : 7
Format           : PGS
Muxing mode          : zlib
Codec ID           : S_HDMV/PGS
Codec ID/Info          : Picture based subtitle format used on BDs/HD-DVDs
Duration           : 1 h 50 min
Bit rate           : 18.5 kb/s
Count of elements        : 1734
Stream size          : 14.6 MiB (0%)
Title            : Portugese
Language           : Portuguese
Default            : No
Forced           : No

Text #6
ID             : 8
Format           : PGS
Muxing mode          : zlib
Codec ID           : S_HDMV/PGS
Codec ID/Info          : Picture based subtitle format used on BDs/HD-DVDs
Duration           : 1 h 50 min
Bit rate           : 15.6 kb/s
Count of elements        : 1790
Stream size          : 12.3 MiB (0%)
Title            : French
Language           : French
Default            : No
Forced           : No

Menu
00:00:00.000         : en:Chapter 01
00:06:11.204         : en:Chapter 02
00:15:46.821         : en:Chapter 03
00:25:23.564         : en:Chapter 04
00:32:45.672         : en:Chapter 05
00:42:28.838         : en:Chapter 06
00:51:13.696         : en:Chapter 07
00:59:30.275         : en:Chapter 08
01:05:55.451         : en:Chapter 09
01:14:59.078         : en:Chapter 10
01:24:05.332         : en:Chapter 11
01:33:50.750         : en:Chapter 12
01:39:24.041         : en:Chapter 13
01:47:28.067         : en:Chapter 14





                                                                  
                                                                                                                                                                                                                                                                                 
7717a94657f892d199420204401393f8.torrent (23.67 KB, 下载次数: 0)

回复

使用道具 举报

小黑屋|百度云资源分享吧 ( 京ICP备15014721号-2 )

本网站所有资源来自网络,如无意中侵犯了您的权益,请发邮件至 [email protected],立即清除相关链接

GMT+8, 2022-12-7 05:56 , Processed in 0.058125 second(s), 29 queries .

Powered by Discuz! X3.2

© 2001-2013 Comsenz Inc.

快速回复 返回顶部 返回列表