百度云资源论坛

 找回密码
 立即注册

魔发精灵2 Trolls.World.Tour.2020.1080p.3D.BluRay.Half-OU.x264.DTS-HD.MA.7.1-FGT ...

[复制链接]
admin 发表于 2021-12-4 17:11:15 | 显示全部楼层 |阅读模式
魔发精灵2 Trolls.World.Tour.2020.1080p.3D.BluRay.Half-OU.x264.DTS-HD.MA.7.1-FGT 13.6                                                                                                                                                                              -->
帖子完整标题:魔发精灵2 Trolls.World.Tour.2020.1080p.3D.BluRay.Half-OU.x264.DTS-HD.MA.7.1-FGT 13.62GB





◎译  名 魔发精灵2 / Trolls 2 / 丑娃2 / 巨魔2 / 巨魔娃娃2 / 魔发精灵2:世界巡演 / 魔发精灵唱游世界(台) / 魔发精灵:世界之旅 / 魔发精灵:唱游大世界(港)
◎片  名 Trolls World Tour
◎年  代 2020
◎产  地 美国
◎类  别 动画 / 歌舞 / 奇幻 / 冒险
◎语  言 英语
◎上映日期 2020-04-10(美国)
◎IMDb评分6.1/10 from 8463 users

◎豆瓣评分 6.7/10 from 3078 users
◎ 
◎片  长 90分钟
◎导  演 沃尔特·道恩 Walt Dohrn / 戴维·P·史密斯 David P. Smith
◎编  剧 乔纳森·阿贝尔 Jonathan Aibel / 格伦·伯杰 Glenn Berger / 玛雅·福布斯 Maya Forbes / 华莱士·沃洛达斯基 Wallace Wolodarsky / Elizabeth Tippet / 托马斯·丹姆 Thomas Dam
◎主  演 安娜·肯德里克 Anna Kendrick
     贾斯汀·汀布莱克 Justin Timberlake
     蕾切尔·布鲁姆 Rachel Bloom
     詹姆斯·柯登 James Corden
     罗恩·芬奇斯 Ron Funches
     凯莉·克拉克森 Kelly Clarkson
     山姆·洛克威尔 Sam Rockwell
     詹米·多南 Jamie Dornan
     乔治·克林顿 George Clinton
     玛丽·布莱姬 Mary J. Blige
     基南·汤普森 Kenan Thompson
     昆瑙·内亚 Kunal Nayyar
     卡洛琳·耶尔特 Caroline Hjelt
     艾诺·贾沃 Aino Jawo
     弗卢拉·博格 Flula Borg
     伊丝特尔·迪恩 Ester Dean
     奥兹·奥斯朋 Ozzy Osbourne
     安东尼·拉莫斯 Anthony Ramos
     卡兰·索尼 Karan Soni
     查琳·易 Charlyne Yi
     朴秀荣 Joy
     姜涩琪 SeulGi
     佐伊·丹斯切尔 Zooey Deschanel
     克里斯托夫·梅兹-普莱瑟 Christopher Mintz-Plasse
     凯文·迈克尔·理查德森 Kevin Michael Richardson
     沃尔特·道恩 Walt Dohrn
     戴维·P·史密斯 David P. Smith
     达明·乔伊·伦道夫 Da'Vine Joy Randolph
     贝琪·索达罗 Betsy Sodaro
     Marcella Lentz-Pope
     Anderson .Paak
     J Balvin


◎标  签 动画 | 魔发精灵 | 梦工厂 | 动画电影 | 美国 | 歌舞 | 2020 | 美国电影

◎简  介

  讲述Poppy和Branch有了一个惊人的发现——除了他们之外,还有其他的魔发精灵世界,各部落的明显差异导致了巨大的冲突。当一种神秘的邪恶力量让所有的精灵世界都面临危险时,Poppy和Branch以及朋友们将踏上一段史诗般的探寻旅程,在长期不和的各精灵族群中创造和谐氛围,让大家团结起来对抗某种厄运。
  这部片的音乐风格将更加多样化,流行音乐、乡村音乐、嘻哈音乐、硬摇滚、骤停打击乐、电子舞曲等都有。
Video
ID             : 1
Format           : AVC
Format/Info          : Advanced Video Codec
Format profile         :
Format settings        : CABAC / 3 Ref Frames
Format settings, CABAC       : Yes
Format settings, Reference frames  : 3 frames
Codec ID           : V_MPEG4/ISO/AVC
Duration           : 1 h 30 min
Bit rate           : 16.0 Mb/s
Width            : 1 920 pixels
Height           : 1 080 pixels
Display aspect ratio       : 16:9
Frame rate mode        : Constant
Frame rate           : 23.976 (24000/1001/189150) FPS
Color space          : YUV
Chroma subsampling       : 4:2:0
Bit depth          : 8 bits
Scan type          : Progressive
Bits/(Pixel*Frame)       : 0.322
Stream size          : 10.0 GiB (74%)
Title            : Trolls.World.Tour.2020.1080p.3D.BluRay.Half-OU.x264.DTS-HD.MA.7.1-FGT
Writing library        : x264 core 148
Encoding settings        : cabac=1 / ref=3 / deblock=1:-1:-1 / analyse=0x3:0 / me=hex / subme=5 / psy=1 / psy_rd=1.00:0.00 / mixed_ref=0 / me_range=16 / chroma_me=1 / trellis=1 / 8x8dct=1 / cqm=0 / deadzone=21,11 / fast_pskip=0 / chroma_qp_offset=0 / threads=48 / lookahead_threads=8 / sliced_threads=0 / nr=0 / decimate=1 / interlaced=0 / bluray_compat=0 / constrained_intra=0 / bframes=2 / b_pyramid=0 / b_adapt=1 / b_bias=0 / direct=1 / weightb=0 / open_gop=0 / weightp=0 / keyint=24 / keyint_min=2 / scenecut=40 / intra_refresh=0 / rc=abr / mbtree=0 / bitrate=16000 / ratetol=1.0 / qcomp=0.60 / qpmin=0 / qpmax=69 / qpstep=4 / ip_ratio=1.40 / pb_ratio=1.30 / aq=1:1.00
Default            : Yes
Forced           : No
Color range          : Limited
Color primaries        : BT.709
Transfer characteristics     : BT.709
Matrix coefficients        : BT.709

Audio #1
ID             : 2
Format           : DTS XLL
Format/Info          : Digital Theater Systems
Commercial name        : DTS-HD Master Audio
Codec ID           : A_DTS
Duration           : 1 h 30 min
Bit rate mode          : Variable
Bit rate           : 4 148 kb/s
Channel(s)           : 8 channels
Channel layout         : C L R LFE Lb Rb Lss Rss
Sampling rate          : 48.0 kHz
Frame rate           : 93.750 FPS (512 SPF)
Bit depth          : 24 bits
Compression mode         : Lossless
Stream size          : 2.63 GiB (19%)
Title            : Trolls.World.Tour.2020.1080p.3D.BluRay.Half-OU.x264.DTS-HD.MA.7.1-FGT
Language           : English
Default            : Yes
Forced           : No

Audio #2
ID             : 3
Format           : AC-3
Format/Info          : Audio Coding 3
Commercial name        : Dolby Digital
Codec ID           : A_AC3
Duration           : 1 h 30 min
Bit rate mode          : Constant
Bit rate           : 640 kb/s
Channel(s)           : 6 channels
Channel layout         : L R C LFE Ls Rs
Sampling rate          : 48.0 kHz
Frame rate           : 31.250 FPS (1536 SPF)
Bit depth          : 16 bits
Compression mode         : Lossy
Stream size          : 415 MiB (3%)
Title            : Trolls.World.Tour.2020.1080p.3D.BluRay.Half-OU.x264.DTS-HD.MA.7.1-FGT
Language           : Italian
Service kind         : Complete Main
Default            : No
Forced           : No

Audio #3
ID             : 4
Format           : AC-3
Format/Info          : Audio Coding 3
Commercial name        : Dolby Digital
Codec ID           : A_AC3
Duration           : 1 h 30 min
Bit rate mode          : Constant
Bit rate           : 640 kb/s
Channel(s)           : 6 channels
Channel layout         : L R C LFE Ls Rs
Sampling rate          : 48.0 kHz
Frame rate           : 31.250 FPS (1536 SPF)
Bit depth          : 16 bits
Compression mode         : Lossy
Stream size          : 415 MiB (3%)
Title            : Trolls.World.Tour.2020.1080p.3D.BluRay.Half-OU.x264.DTS-HD.MA.7.1-FGT
Language           : Arabic
Service kind         : Complete Main
Default            : No
Forced           : No

Audio #4
ID             : 5
Format           : AC-3
Format/Info          : Audio Coding 3
Commercial name        : Dolby Digital
Codec ID           : A_AC3
Duration           : 1 h 30 min
Bit rate mode          : Constant
Bit rate           : 192 kb/s
Channel(s)           : 2 channels
Channel layout         : L R
Sampling rate          : 48.0 kHz
Frame rate           : 31.250 FPS (1536 SPF)
Bit depth          : 16 bits
Compression mode         : Lossy
Stream size          : 125 MiB (1%)
Title            : Trolls.World.Tour.2020.1080p.3D.BluRay.Half-OU.x264.DTS-HD.MA.7.1-FGT
Language           : English
Service kind         : Complete Main
Default            : No
Forced           : No

Text #1
ID             : 6
Format           : PGS
Muxing mode          : zlib
Codec ID           : S_HDMV/PGS
Codec ID/Info          : Picture based subtitle format used on BDs/HD-DVDs
Duration           : 1 h 24 min
Bit rate           : 60.1 kb/s
Count of elements        : 3034
Stream size          : 36.2 MiB (0%)
Title            : English-PGS
Language           : English
Default            : Yes
Forced           : No

Text #2
ID             : 7
Format           : PGS
Muxing mode          : zlib
Codec ID           : S_HDMV/PGS
Codec ID/Info          : Picture based subtitle format used on BDs/HD-DVDs
Duration           : 1 h 29 min
Bit rate           : 46.3 kb/s
Count of elements        : 2728
Stream size          : 29.8 MiB (0%)
Title            : Italian-PGS
Language           : Italian
Default            : No
Forced           : No

Text #3
ID             : 8
Format           : PGS
Muxing mode          : zlib
Codec ID           : S_HDMV/PGS
Codec ID/Info          : Picture based subtitle format used on BDs/HD-DVDs
Duration           : 1 h 29 min
Bit rate           : 28.0 kb/s
Count of elements        : 2748
Stream size          : 18.0 MiB (0%)
Title            : Arabic-PGS
Language           : Arabic
Default            : No
Forced           : No

Menu #1
00:00:00.000         : en:Chapter 01
00:05:12.770         : en:Chapter 02
00:08:44.899         : en:Chapter 03
00:12:51.729         : en:Chapter 04
00:18:25.813         : en:Chapter 05
00:22:58.835         : en:Chapter 06
00:27:36.404         : en:Chapter 07
00:30:35.041         : en:Chapter 08
00:34:23.352         : en:Chapter 09
00:38:27.138         : en:Chapter 10
00:41:13.095         : en:Chapter 11
00:46:19.276         : en:Chapter 12
00:50:12.426         : en:Chapter 13
00:54:22.926         : en:Chapter 14
00:59:23.226         : en:Chapter 15
01:03:39.273         : en:Chapter 16
01:06:25.523         : en:Chapter 17
01:10:18.297         : en:Chapter 18
01:15:41.828         : en:Chapter 19
01:21:19.916         : en:Chapter 20

[/url]

[/url]



                                                                  
                                                                                                                                                                                                                                                                                 
d9de031334a4a25e8efddaa0e97b84b3.zip (68.84 KB, 下载次数: 0)

回复

使用道具 举报

小黑屋|百度云资源分享吧 ( 京ICP备15014721号-2 )

本网站所有资源来自网络,如无意中侵犯了您的权益,请发邮件至 [email protected],立即清除相关链接

GMT+8, 2022-12-2 18:17 , Processed in 0.059965 second(s), 27 queries .

Powered by Discuz! X3.2

© 2001-2013 Comsenz Inc.

快速回复 返回顶部 返回列表