百度云资源论坛

 找回密码
 立即注册

短发和卷发 The.Short.and.Curlies.1987.720p.BluRay.x264-GAZER 546.85MB

[复制链接]
admin 发表于 2021-12-4 17:22:28 | 显示全部楼层 |阅读模式
短发和卷发 The.Short.and.Curlies.1987.720p.BluRay.x264-GAZER 546.85MB                                                                                                                                                                              -->
帖子完整标题:短发和卷发 The.Short.and.Curlies.1987.720p.BluRay.x264-GAZER 546.85MB





◎译  名 短发和卷发
◎片  名 The Short & Curlies
◎年  代 1988
◎产  地 英国
◎类  别 短片
◎语  言 英语
◎上映日期 1987
◎豆瓣评分 5.8/10 from 217 users
◎ 
◎片  长 18分钟
◎导  演 迈克·李 Mike Leigh
◎编  剧 迈克·李 Mike Leigh
◎主  演 大卫·休里斯 David Thewlis
     艾莉森·斯戴曼 Alison Steadman
     斯薇斯特·L·唐兹尔 Sylvestra Le Touzel

◎标  签 短片 | 英国 | MikeLeigh | 迈克·李 | 1980s | Mike_Leigh | 1988 | DavidThewlis

◎简  介

  Joy works in a chemists and gets to know Clive as he comes in for various things – their relationship develop even though she seems to be having different conversations from him, as he is always just making bad jokes. Joy gets her hair done by Betty in the local hairdressers; Betty cannot stop talking for a second, even when she goes home to her daughter Charlene.
  
  
  
  (Plot by'bob the moo' from imdb)
Video
ID             : 1
Format           : AVC
Format/Info          : Advanced Video Codec
Format profile         :
Format settings        : CABAC / 9 Ref Frames
Format settings, CABAC       : Yes
Format settings, Reference frames  : 9 frames
Codec ID           : V_MPEG4/ISO/AVC
Duration           : 18 min 5 s
Bit rate           : 3 970 kb/s
Width            : 1 280 pixels
Height           : 720 pixels
Display aspect ratio       : 16:9
Frame rate mode        : Constant
Frame rate           : 24.000 FPS
Color space          : YUV
Chroma subsampling       : 4:2:0
Bit depth          : 8 bits
Scan type          : Progressive
Bits/(Pixel*Frame)       : 0.179
Stream size          : 514 MiB (94%)
Writing library        : x264 core 164 r3065 ae03d92
Encoding settings        : cabac=1 / ref=9 / deblock=1:-3:-3 / analyse=0x3:0x133 / me=umh / subme=10 / psy=1 / psy_rd=1.20:0.00 / mixed_ref=1 / me_range=24 / chroma_me=1 / trellis=2 / 8x8dct=1 / cqm=0 / deadzone=21,11 / fast_pskip=0 / chroma_qp_offset=-2 / threads=22 / lookahead_threads=3 / sliced_threads=0 / nr=0 / decimate=0 / interlaced=0 / bluray_compat=0 / constrained_intra=0 / bframes=8 / b_pyramid=2 / b_adapt=2 / b_bias=0 / direct=3 / weightb=1 / open_gop=0 / weightp=2 / keyint=250 / keyint_min=24 / scenecut=40 / intra_refresh=0 / rc_lookahead=60 / rc=crf / mbtree=1 / crf=20.0 / qcomp=0.60 / qpmin=0 / qpmax=69 / qpstep=4 / ip_ratio=1.40 / aq=3:0.90
Default            : Yes
Forced           : No
Color range          : Limited
Matrix coefficients        : BT.709

Audio
ID             : 2
Format           : AC-3
Format/Info          : Audio Coding 3
Commercial name        : Dolby Digital
Codec ID           : A_AC3
Duration           : 18 min 5 s
Bit rate mode          : Constant
Bit rate           : 256 kb/s
Channel(s)           : 2 channels
Channel layout         : L R
Sampling rate          : 48.0 kHz
Frame rate           : 31.250 FPS (1536 SPF)
Compression mode         : Lossy
Stream size          : 33.1 MiB (6%)
Language           : English
Service kind         : Complete Main
Default            : Yes
Forced           : No

Menu
00:00:00.000         : Chapter 01
00:07:53.042         : Chapter 02






                                                                  
                                                                                                                                                                                                                                                                                 
1531dd03aed8c6da3e120e1371ab65ec.torrent (11.42 KB, 下载次数: 0)

回复

使用道具 举报

小黑屋|百度云资源分享吧 ( 京ICP备15014721号-2 )

本网站所有资源来自网络,如无意中侵犯了您的权益,请发邮件至 [email protected],立即清除相关链接

GMT+8, 2022-12-7 06:01 , Processed in 0.059420 second(s), 31 queries .

Powered by Discuz! X3.2

© 2001-2013 Comsenz Inc.

快速回复 返回顶部 返回列表