百度云资源论坛

 找回密码
 立即注册

一击/一次机会 One.Shot.2021.1080p.BluRay.x264.DTS-HD.MA.5.1-MT 12.54GB

[复制链接]
admin 发表于 2021-12-4 18:53:28 | 显示全部楼层 |阅读模式
一击/一次机会 One.Shot.2021.1080p.BluRay.x264.DTS-HD.MA.5.1-MT 12.54GB                                                                                                                                                                              -->
帖子完整标题:一击/一次机会 One.Shot.2021.1080p.BluRay.x264.DTS-HD.MA.5.1-MT 12.54GB





◎译  名 一击/一次机会
◎片  名 One Shot
◎年  代 2021
◎产  地 美国
◎类  别 动作
◎语  言 英语
◎上映日期 2021-11-05(美国)
◎豆瓣评分 6.6/10 from 1764 users
◎ 
◎片  长 96分钟
◎导  演 詹姆斯·纳恩 James Nunn
◎主  演 斯科特·阿金斯 Scott Adkins
     阿什丽·格林尼 Ashley Greene
     瑞恩·菲利普 Ryan Phillippe

◎标  签 动作 | 枪战 | 美国 | 2021 | 阿金斯 | 犯罪 | 美国电影 | 剧情

◎简  介

  斯科特·阿金斯(《终极斗士4》)与导演詹姆斯·纳恩(《足球流氓3》《毁灭者》)即将合作新电影《一击》(暂译,One Shot)。讲述阿金斯饰演的海豹突击队长率领队员执行秘密任务,试图在一个处于CIA管控下的黑狱中转移一名囚犯。而任务执行当天却遭到了叛乱者的袭击。他们需要在想办法突围的同时营救目标人物。
  
  本片将采取一镜到底(One single continuous take)的形式完成,并计划于3月9日开始制作。
Video
ID             : 1
Format           : AVC
Format/Info          : Advanced Video Codec
Format profile         :
Format settings        : CABAC / 4 Ref Frames
Format settings, CABAC       : Yes
Format settings, Reference frames  : 4 frames
Codec ID           : V_MPEG4/ISO/AVC
Duration           : 1 h 36 min
Bit rate           : 14.8 Mb/s
Width            : 1 920 pixels
Height           : 960 pixels
Display aspect ratio       : 2.000
Frame rate mode        : Constant
Frame rate           : 23.976 (24000/1001/189150) FPS
Color space          : YUV
Chroma subsampling       : 4:2:0
Bit depth          : 8 bits
Scan type          : Progressive
Bits/(Pixel*Frame)       : 0.334
Stream size          : 9.97 GiB (80%)
Writing library        : x264 core 157 r2938 2b00a84Mod
Encoding settings        : cabac=1 / ref=4 / deblock=1:-3:-3 / analyse=0x3:0x133 / me=umh / subme=10 / psy=1 / psy_rd=1.05:0.00 / mixed_ref=1 / me_range=32 / chroma_me=1 / trellis=2 / 8x8dct=1 / cqm=0 / deadzone=21,11 / fast_pskip=0 / chroma_qp_offset=-2 / threads=12 / lookahead_threads=2 / sliced_threads=0 / nr=0 / decimate=0 / interlaced=0 / bluray_compat=0 / constrained_intra=0 / bframes=8 / b_pyramid=2 / b_adapt=2 / b_bias=0 / direct=3 / weightb=1 / open_gop=0 / weightp=2 / keyint=250 / keyint_min=24 / scenecut=40 / intra_refresh=0 / rc_lookahead=250 / rc=crf / mbtree=0 / crf=16.8 / qcomp=0.60 / qpmin=0 / qpmax=69 / qpstep=4 / vbv_maxrate=62500 / vbv_bufsize=78125 / crf_max=0.0 / nal_hrd=none / filler=0 / ip_ratio=1.30 / pb_ratio=1.20 / aq=3:0.80
Language           : English
Default            : Yes
Forced           : No
Color range          : Limited
Color primaries        : BT.709
Matrix coefficients        : BT.709

Audio
ID             : 2
Format           : DTS XLL
Format/Info          : Digital Theater Systems
Commercial name        : DTS-HD Master Audio
Codec ID           : A_DTS
Duration           : 1 h 36 min
Bit rate mode          : Variable
Bit rate           : 3 751 kb/s
Channel(s)           : 6 channels
Channel layout         : C L R Ls Rs LFE
Sampling rate          : 48.0 kHz
Frame rate           : 93.750 FPS (512 SPF)
Bit depth          : 24 bits
Compression mode         : Lossless
Stream size          : 2.54 GiB (20%)
Language           : English
Default            : Yes
Forced           : No

Text #1
ID             : 3
Format           : UTF-8
Codec ID           : S_TEXT/UTF8
Codec ID/Info          : UTF-8 Plain Text
Duration           : 1 h 31 min
Bit rate           : 47 b/s
Count of elements        : 1110
Stream size          : 32.1 KiB (0%)
Language           : English
Default            : Yes
Forced           : No

Text #2
ID             : 4
Format           : UTF-8
Codec ID           : S_TEXT/UTF8
Codec ID/Info          : UTF-8 Plain Text
Duration           : 1 h 32 min
Bit rate           : 52 b/s
Count of elements        : 1254
Stream size          : 35.3 KiB (0%)
Title            : SDH
Language           : English
Default            : No
Forced           : No

Text #3
ID             : 5
Format           : PGS
Muxing mode          : zlib
Codec ID           : S_HDMV/PGS
Codec ID/Info          : Picture based subtitle format used on BDs/HD-DVDs
Duration           : 1 h 32 min
Bit rate           : 61.8 kb/s
Count of elements        : 2508
Stream size          : 40.7 MiB (0%)
Language           : English
Default            : No
Forced           : No

Menu
00:00:00.000         : en:Chapter 01
00:08:51.448         : en:Chapter 02
00:16:17.143         : en:Chapter 03
00:24:00.981         : en:Chapter 04
00:32:01.336         : en:Chapter 05
00:40:35.558         : en:Chapter 06
00:47:34.143         : en:Chapter 07
00:55:21.902         : en:Chapter 08
01:05:48.027         : en:Chapter 09
01:16:46.852         : en:Chapter 10
01:23:59.409         : en:Chapter 11
01:33:30.063         : en:Chapter 12

[/url]

[/url]

[/url]




                                                                  
                                                                                                                                                                                                                                                                                 
d1a855c1f3e38096018b48bcab5fef64.torrent (16.3 KB, 下载次数: 0)

回复

使用道具 举报

小黑屋|百度云资源分享吧 ( 京ICP备15014721号-2 )

本网站所有资源来自网络,如无意中侵犯了您的权益,请发邮件至 [email protected],立即清除相关链接

GMT+8, 2022-12-7 04:56 , Processed in 0.063053 second(s), 31 queries .

Powered by Discuz! X3.2

© 2001-2013 Comsenz Inc.

快速回复 返回顶部 返回列表