百度云资源论坛

 找回密码
 立即注册

火烧旧金山/旧金山 San.Francisco.1936.1080p.BluRay.x264-ORBS 12.57GB

[复制链接]
admin 发表于 2021-12-4 18:53:28 | 显示全部楼层 |阅读模式
火烧旧金山/旧金山 San.Francisco.1936.1080p.BluRay.x264-ORBS 12.57GB                                                                                                                                                                              -->
帖子完整标题:火烧旧金山/旧金山 San.Francisco.1936.1080p.BluRay.x264-ORBS 12.57GB





◎译  名 火烧旧金山/旧金山
◎片  名 San Francisco
◎年  代 1936
◎产  地 美国
◎类  别 剧情 / 爱情 / 歌舞
◎语  言 英语
◎上映日期 1936-11-09
◎豆瓣评分 7.2/10 from 129 users
◎ 
◎片  长 115 分钟
◎导  演 W.S.范戴克 W.S. Van Dyke
◎编  剧 罗伯特·E·霍普金斯 Robert E. Hopkins / 安尼塔·卢斯 Anita Loos
◎主  演 克拉克·盖博 Clark Gable
     珍妮特·麦克唐纳 Jeanette MacDonald
     斯宾塞·屈塞 Spencer Tracy

◎标  签 美国 | 克拉克·盖博 | 灾难 | 1936 | 爱情 | ClarkGable | 美国电影 | 歌舞

◎简  介

  本片以1906年旧金山大地震为背景,穿插了竞选、歌唱、狂欢、爱情和宗教宣传。影片的主要特点是长达二十分钟的大地震高潮,摄影、特技和剪辑都有些特点;尤其音响效果和整个场面的气氛结合得较好,增加了惊心动魄的感觉,曾获得第9届奥斯卡最佳音响效果金像奖。导演范戴克以手法明快见长,这部影片的开头和结尾都采用了一组经过设计的短镜头来表达一事件的过程。女主角珍妮.麦唐纳的主题歌,曾流行一时。

◎获奖情况

  第9届奥斯卡金像奖 ?(1937)
  最佳影片(提名)
  最佳导演(提名) W.S.范戴克
  最佳助理导演(提名) 约瑟夫·纽曼
  最佳男主角(提名) 斯宾塞·屈塞
  最佳原创故事(提名) 罗伯特·E·霍普金斯
  最佳录音 道格拉斯·希勒
  
  第4届威尼斯电影节 ?(1936)
  墨索里尼杯最佳国际电影(提名) W.S.范戴克
Video
ID             : 1
Format           : AVC
Format/Info          : Advanced Video Codec
Format profile         :
Format settings        : CABAC / 5 Ref Frames
Format settings, CABAC       : Yes
Format settings, Reference frames  : 5 frames
Codec ID           : V_MPEG4/ISO/AVC
Duration           : 1 h 55 min
Bit rate           : 15.3 Mb/s
Width            : 1 480 pixels
Height           : 1 080 pixels
Display aspect ratio       : 1.370
Frame rate mode        : Constant
Frame rate           : 23.976 (24000/1001/189150) FPS
Color space          : YUV
Chroma subsampling       : 4:2:0
Bit depth          : 8 bits
Scan type          : Progressive
Bits/(Pixel*Frame)       : 0.400
Stream size          : 12.3 GiB (98%)
Writing library        : x264 core 164 r3065 ae03d92
Encoding settings        : cabac=1 / ref=5 / deblock=1:-3:-3 / analyse=0x3:0x133 / me=umh / subme=10 / psy=1 / psy_rd=1.50:0.15 / mixed_ref=1 / me_range=24 / chroma_me=1 / trellis=2 / 8x8dct=1 / cqm=0 / deadzone=21,11 / fast_pskip=0 / chroma_qp_offset=-3 / threads=24 / lookahead_threads=4 / sliced_threads=0 / nr=0 / decimate=0 / interlaced=0 / bluray_compat=0 / constrained_intra=0 / bframes=8 / b_pyramid=2 / b_adapt=2 / b_bias=0 / direct=3 / weightb=1 / open_gop=0 / weightp=2 / keyint=250 / keyint_min=23 / scenecut=40 / intra_refresh=0 / rc_lookahead=60 / rc=crf / mbtree=1 / crf=21.0 / qcomp=0.60 / qpmin=0 / qpmax=69 / qpstep=4 / ip_ratio=1.40 / aq=3:0.50
Default            : Yes
Forced           : No
Color range          : Limited
Matrix coefficients        : BT.709

Audio
ID             : 2
Format           : FLAC
Format/Info          : Free Lossless Audio Codec
Codec ID           : A_FLAC
Duration           : 1 h 55 min
Bit rate mode          : Variable
Bit rate           : 244 kb/s
Channel(s)           : 2 channels
Channel layout         : L R
Sampling rate          : 48.0 kHz
Frame rate           : 11.719 FPS (4096 SPF)
Bit depth          : 16 bits
Compression mode         : Lossless
Stream size          : 202 MiB (2%)
Writing library        : libFLAC 1.3.3 (UTC 2019-08-04)
Language           : English
Default            : Yes
Forced           : No

Text
ID             : 3
Format           : PGS
Muxing mode          : zlib
Codec ID           : S_HDMV/PGS
Codec ID/Info          : Picture based subtitle format used on BDs/HD-DVDs
Duration           : 1 h 55 min
Bit rate           : 43.1 kb/s
Count of elements        : 4326
Stream size          : 35.5 MiB (0%)
Title            : SDH
Language           : English
Default            : No
Forced           : No

Menu
00:00:00.000         : Chapter 01
00:01:23.875         : Chapter 02
00:01:53.196         : Chapter 03
00:05:15.232         : Chapter 04
00:08:23.545         : Chapter 05
00:10:11.611         : Chapter 06
00:14:19.859         : Chapter 07
00:17:20.122         : Chapter 08
00:20:05.788         : Chapter 09
00:23:42.463         : Chapter 10
00:27:56.633         : Chapter 11
00:30:36.001         : Chapter 12
00:34:24.020         : Chapter 13
00:38:12.332         : Chapter 14
00:41:11.552         : Chapter 15
00:45:30.561         : Chapter 16
00:49:45.399         : Chapter 17
00:52:42.659         : Chapter 18
00:57:13.180         : Chapter 19
00:59:57.260         : Chapter 20
01:03:50.326         : Chapter 21
01:07:11.611         : Chapter 22
01:12:06.197         : Chapter 23
01:17:05.204         : Chapter 24
01:19:48.033         : Chapter 25
01:23:31.298         : Chapter 26
01:28:11.703         : Chapter 27
01:31:44.416         : Chapter 28
01:33:52.961         : Chapter 29
01:35:35.897         : Chapter 30
01:38:06.672         : Chapter 31
01:40:44.038         : Chapter 32
01:46:40.686         : Chapter 33
01:49:57.966         : Chapter 34
01:51:56.251         : Chapter 35
01:53:35.475         : Chapter 36
01:55:24.918         : Chapter 37






                                                                  
                                                                                                                                                                                                                                                                                 
8c12f8b27ce5da82a657d19d4fc4a01e.torrent (16.44 KB, 下载次数: 0)

回复

使用道具 举报

小黑屋|百度云资源分享吧 ( 京ICP备15014721号-2 )

本网站所有资源来自网络,如无意中侵犯了您的权益,请发邮件至 [email protected],立即清除相关链接

GMT+8, 2022-12-7 03:47 , Processed in 0.054363 second(s), 27 queries .

Powered by Discuz! X3.2

© 2001-2013 Comsenz Inc.

快速回复 返回顶部 返回列表