百度云资源论坛

 找回密码
 立即注册

[纯净版][BT下载][365天:明日之欲][WebDL-MKV/2.20GB][中字][1080P][2022性感美女大 ...

[复制链接]
阿辉 发表于 2023-11-18 21:32:29 | 显示全部楼层 |阅读模式
-->海报

026497fdda50c0b451972a56ea948206.jpg



译  名 365天:明日之欲/黑帮大佬和我的365日3/接下来的365天/再现之欲
片  名 The Next 365 Days
年  代 2022
国  家 波兰
类  别 剧情/爱情/
语  言 波兰语/英语
字  幕 中简/中繁/英文
评  分 4.6/10 from 7,138 users
链  接 
文件大小 2.20 GB
片  长 112 Min
导  演 芭芭拉·比尔拉瓦斯 Barbara Bialowas
     托马斯·曼丁斯 Tomasz Mandes
主  演 安娜·玛丽亚·西克拉克 Anna Maria Sieklucka
     米凯莱·莫罗尼 Michele Morrone
     西蒙·苏西纳 Simone Susinna
     玛格达莱娜·朗帕斯卡 Magdalena Lamparska
     奥塔尔·萨拉利兹 Otar Saralidze
     埃瓦·卡斯珀齐克 Ewa Kasprzyk
     达里乌斯·贾库波斯基 Dariusz Jakubowski
     拉蒙·兰加 Ramon Langa
     托马斯·曼丁斯 Tomasz Mandes
     娜塔莉亚·西维茨 Natalia Siwiec
     卡罗琳娜·皮萨雷克 Karolina Pisarek

简介

  劳拉和马西莫的关系岌岌可危,二人试图克服信任问题,而执着的纳乔想方设法拆散二人。


Video
Format                         : AVC
Format/Info                    : Advanced Video Codec
Format profile                 : High@L4
Format settings                : CABAC / 4 Ref Frames
Format settings, CABAC         : Yes
Format settings, Reference fra : 4 frames
Codec ID                       : V_MPEG4/ISO/AVC
Duration                       : 1 h 53 min
Bit rate mode                  : Variable
Bit rate                       : 2 125 kb/s
Maximum bit rate               : 20.0 Mb/s
Width                          : 1 920 pixels
Height                         : 1 080 pixels
Display aspect ratio           : 16:9
Frame rate mode                : Constant
Frame rate                     : 25.000 FPS
Color space                    : YUV
Chroma subsampling             : 4:2:0
Bit depth                      : 8 bits
Scan type                      : Progressive
Bits/(Pixel*Frame)             : 0.041
Stream size                    : 1.69 GiB (76%)

Audio
Format                         : E-AC-3
Format/Info                    : Enhanced AC-3
Commercial name                : Dolby Digital Plus
Codec ID                       : A_EAC3
Duration                       : 1 h 53 min
Bit rate mode                  : Constant
Bit rate                       : 640 kb/s
Channel(s)                     : 6 channels
Channel layout                 : L R C LFE Ls Rs
Sampling rate                  : 48.0 kHz
Frame rate                     : 31.250 FPS (1536 SPF)
Compression mode               : Lossy
Stream size                    : 521 MiB (23%)
Language                       : English
Service kind                   : Complete Main

截图

acfce2b97cdeb68f42c7e58de48856c2.jpg




                                                                                                                                                                                                        
                                                                                                                                                                                                                                                                                                                                                                                                                                                                                                                                                                                                                                                                                                                                                                                                                                                        
8e6f181d0c04089c14f0b2c117c678e3.torrent (23.39 KB, 下载次数: 0)

回复

使用道具 举报

小黑屋|百度云资源分享吧 ( 京ICP备15014721号-2 )

本网站所有资源来自网络,如无意中侵犯了您的权益,请发邮件至 [email protected],立即清除相关链接

GMT+8, 2024-7-14 13:35 , Processed in 0.084591 second(s), 27 queries .

Powered by Discuz! X3.2

© 2001-2013 Comsenz Inc.

快速回复 返回顶部 返回列表