百度云资源论坛

 找回密码
 立即注册

[BT下载]小飞侠:幻梦启航[国语配音/中文字幕].Pan.2015.720p.BluRay.x264-WiKi 4.81G ...

[复制链接]
百度云资源 发表于 2015-12-27 16:24:48 | 显示全部楼层 |阅读模式

译  名 小飞侠:幻梦启航/潘恩:航向梦幻岛(台)/小飞侠:魔幻始源(港)/彼得·潘/小飞侠
片  名 Pan
年  代 2015
国  家 美国/英国/澳大利亚
类  别 奇幻/冒险
语  言 英语
上映日期 2015-10-09(美国)/2015-10-22(中国大陆)
片  长 111分钟
导  演 乔·赖特 Joe Wright
主  演 休·杰克曼 Hugh Jackman
      莱维·米勒 Levi Miller
      加内特·赫德兰 Garrett Hedlund
      鲁妮·玛拉 Rooney Mara
      阿曼达·塞弗里德 Amanda Seyfried
      阿迪勒·阿赫塔尔 Adeel Akhtar
      卡拉·迪瓦伊 Cara Delevingne
      侬索·阿诺斯 Nonso Anozie
      凯西·伯克 Kathy Burke
      罗泰柱 Tae-joo Na
      杰克·查尔斯 Jack Charles
      布隆森·韦伯 Bronson Webb
      吉米·维 Jimmy Vee
      斯宾塞·怀尔丁 Spencer Wilding
      布莱恩·博维尔 Brian Bovell
      迈克·谢泼德 Mike Shepherd
      刘易斯·麦克杜格尔 Lewis MacDougall

简  介

  彼得·潘(莱维·米勒 Levi Miller 饰)是一个淘气的12岁小男孩,他是孤儿院院长眼中的头痛人物,因为他经常有叛逆的行为,这使他在成长的伦敦孤儿院中,显得特立独行。一个不寻常的夜里,彼得从孤儿院被带走,来到了一个名叫"梦幻岛"地方——一个充满海盗、战士与精灵的神奇国度。在梦幻岛上,他经历了许多惊心动魄的冒险和生死一线的对决,但这一切似乎与当年将他留在孤儿院的生母有关,在重重的谜团下,他与女战士虎莲公主(鲁妮·玛拉 Rooney Mara 饰)以及新朋友胡克船长(加内特·赫德兰 Garrett Hedlund 饰)结成盟友,一起面对一项古老的预言。预言中有一个佩戴着牧笛项链的勇士来到梦幻岛,他将带领所有人一起对抗邪恶的海盗黑胡子船长(休·杰克曼 Hugh Jackman 饰),但是只有12岁的小男孩彼得,是那个能够打败海盗黑胡子船长的勇士吗?
  影片改编自英国作家詹姆斯·巴利的著名剧作 《彼得·潘》。
                General
Unique ID                      : 181344911925410896270363452874365571046 (0x886DC2760F2C3D0FA9E4257C4A9F8FE6)
Complete name                  : D:\很多种\Pan.2015.720p.BluRay.x264-WiKi\Pan.2015.720p.BluRay.x264-WiKi.mkv
Format                         : Matroska
Format version                 : Version 1
File size                      : 4.77 GiB
Duration                       : 1h 51mn
Overall bit rate               : 6 124 Kbps
Encoded date                   : UTC 2015-12-12 11:54:39
Writing application            : mkvmerge v2.2.0 ('Turn It On Again') built on Mar  4 2008 13:20:25
Writing library                : libebml v0.7.7 + libmatroska v0.8.1
Attachements                   : MSYH.TTF / MSYHBD.TTF / tahoma.ttf

Video
ID                             : 1
Format                         : AVC
Format/Info                    : Advanced Video Codec
Format profile                 : [email protected]
Format settings, CABAC         : Yes
Format settings, ReFrames      : 12 frames
Codec ID                       : V_MPEG4/ISO/AVC
Duration                       : 1h 51mn
Bit rate                       : 4 800 Kbps
Width                          : 1 280 pixels
Height                         : 534 pixels
Display aspect ratio           : 2.40:1
Frame rate mode                : Constant
Frame rate                     : 23.976 fps
Color space                    : YUV
Chroma subsampling             : 4:2:0
Bit depth                      : 8 bits
Scan type                      : Progressive
Bits/(Pixel*Frame)             : 0.293
Stream size                    : 3.68 GiB (77%)
Writing library                : x264 core 130 r2273 b3065e6
Encoding settings              : cabac=1 / ref=12 / deblock=1:-3:-3 / analyse=0x3:0x113 / me=umh / subme=11 / psy=1 / psy_rd=1.00:0.05 / mixed_ref=1 / me_range=32 / chroma_me=1 / trellis=2 / 8x8dct=1 / cqm=0 / deadzone=21,11 / fast_pskip=0 / chroma_qp_offset=-5 / threads=12 / lookahead_threads=2 / sliced_threads=0 / nr=0 / decimate=0 / interlaced=0 / bluray_compat=0 / constrained_intra=0 / bframes=8 / b_pyramid=2 / b_adapt=2 / b_bias=0 / direct=3 / weightb=1 / open_gop=0 / weightp=2 / keyint=250 / keyint_min=23 / scenecut=40 / intra_refresh=0 / rc_lookahead=90 / rc=2pass / mbtree=1 / bitrate=4800 / ratetol=1.0 / qcomp=0.60 / qpmin=0 / qpmax=69 / qpstep=4 / cplxblur=20.0 / qblur=0.5 / ip_ratio=1.40 / aq=1:0.80
Language                       : English
Default                        : Yes
Forced                         : No

Audio #1
ID                             : 2
Format                         : AC-3
Format/Info                    : Audio Coding 3
Mode extension                 : CM (complete main)
Format settings, Endianness    : Big
Codec ID                       : A_AC3
Duration                       : 1h 51mn
Bit rate mode                  : Constant
Bit rate                       : 640 Kbps
Channel(s)                     : 6 channels
Channel positions              : Front: L C R, Side: L R, LFE
Sampling rate                  : 48.0 KHz
Compression mode               : Lossy
Stream size                    : 511 MiB (10%)
Title                          : 英语
Language                       : English
Default                        : Yes
Forced                         : No

Audio #2
ID                             : 3
Format                         : AC-3
Format/Info                    : Audio Coding 3
Mode extension                 : CM (complete main)
Format settings, Endianness    : Big
Codec ID                       : A_AC3
Duration                       : 1h 51mn
Bit rate mode                  : Constant
Bit rate                       : 640 Kbps
Channel(s)                     : 6 channels
Channel positions              : Front: L C R, Side: L R, LFE
Sampling rate                  : 48.0 KHz
Compression mode               : Lossy
Stream size                    : 511 MiB (10%)
Title                          : 国语
Language                       : Chinese
Default                        : No
Forced                         : No

Text
ID                             : 4
Format                         : ASS
Codec ID                       : S_TEXT/ASS
Codec ID/Info                  : Advanced Sub Station Alpha
Compression mode               : Lossless
Title                          : chs&eng
Language                       : Chinese
Default                        : Yes
Forced                         : No








                                                                                                                                                                                                        

                                                                                                                        
                                                                                                                                                                                                                                                         Pan.2015.720p.BluRay.x264-WiKi.torrent (25.13 KB, 下载次数: 0)

回复

使用道具 举报

小黑屋|百度云资源分享吧 ( 京ICP备15014721号-2 )

本网站所有资源来自网络,如无意中侵犯了您的权益,请发邮件至 [email protected],立即清除相关链接

GMT+8, 2024-7-14 11:44 , Processed in 0.079796 second(s), 27 queries .

Powered by Discuz! X3.2

© 2001-2013 Comsenz Inc.

快速回复 返回顶部 返回列表