百度云资源论坛

 找回密码
 立即注册

[有水印][BT下载][毒战2][WebDL-MKV/4.54GB][中字][1080P][韩国2023最新期待动作犯罪 ...

[复制链接]
阿辉 发表于 2024-3-31 22:37:58 | 显示全部楼层 |阅读模式
-->海报

e420fd1cf7a7fdcbbc8ced610e3dea65.jpg



9b63d10609b0c13de107ca69d1f8a979.jpg



译  名 毒战2/信徒2
片  名 Believer 2
年  代 2023
国  家 韩国
类  别 动作/犯罪/惊悚
语  言 韩语/汉语普通话
字  幕 中简/中繁
评  分 5.1/10 from 1,309 users
链  接 
文件大小 4.54 GB
片  长 114 Min
导  演 白宗烈 Jong-Yeol Baek
主  演 赵震雄 Cho Jin-woong
     车胜元 Seung-won Cha
     韩孝周 Hyo-joo Han
     吴承勋 Oh Seung-Hoon
     金东英 Dong-yeong Kim
     李周英 Joo-young Lee
     赵汉哲 Han-chul Jo
     马泰 Tzi Ma

简介

  这是一部Netflix犯罪动作片,围绕仍在追捕李先生的侦探元好(赵震雄 饰)、失踪的乐(吴承勋 饰)、重新出现的布莱恩(车胜元 饰)和从中国赶来解决问题的大刀(韩孝周 饰)展开,讲述了他们之间的致命战争。


Video
Format                         : AVC
Format/Info                    : Advanced Video Codec
Format profile                 : Main@L4
Format settings                : CABAC / 3 Ref Frames
Format settings, CABAC         : Yes
Format settings, Reference fra : 3 frames
Codec ID                       : V_MPEG4/ISO/AVC
Duration                       : 1 h 56 min
Bit rate mode                  : Variable
Bit rate                       : 5 000 kb/s
Maximum bit rate               : 7 500 kb/s
Width                          : 1 920 pixels
Height                         : 1 080 pixels
Display aspect ratio           : 16:9
Frame rate mode                : Constant
Frame rate                     : 23.976 (24000/1001) FPS
Color space                    : YUV
Chroma subsampling             : 4:2:0
Bit depth                      : 8 bits
Scan type                      : Progressive
Bits/(Pixel*Frame)             : 0.101
Stream size                    : 3.93 GiB (86%)

Audio
Format                         : E-AC-3 JOC
Format/Info                    : Enhanced AC-3 with Joint Object Coding
Commercial name                : Dolby Digital Plus with Dolby Atmos
Codec ID                       : A_EAC3
Duration                       : 1 h 54 min
Bit rate mode                  : Constant
Bit rate                       : 768 kb/s
Channel(s)                     : 6 channels
Channel layout                 : L R C LFE Ls Rs
Sampling rate                  : 48.0 kHz
Frame rate                     : 31.250 FPS (1536 SPF)
Bit depth                      : 32 bits
Compression mode               : Lossy
Stream size                    : 628 MiB (13%)
Language                       : Korean
Service kind                   : Complete Main

截图

2b7012cf3a2e9f803312a8b68671fc64.jpg




                                                                                                                                                                                                        
                                                                                                                                                                                                                                                                                                                                                                                                                                                                                                                                                                                                                                                                                                                                                                                                                                                        
94417497db83eea261340b064f914a1a.torrent (24.08 KB, 下载次数: 0)

回复

使用道具 举报

小黑屋|百度云资源分享吧 ( 京ICP备15014721号-2 )

本网站所有资源来自网络,如无意中侵犯了您的权益,请发邮件至 [email protected],立即清除相关链接

GMT+8, 2024-4-17 00:45 , Processed in 0.057612 second(s), 27 queries .

Powered by Discuz! X3.2

© 2001-2013 Comsenz Inc.

快速回复 返回顶部 返回列表