百度云资源论坛

 找回密码
 立即注册

[BT下载][飞驰人生2][WebDL-MKV/4.18GB][国语][2160P][韩寒沈腾2024票房高分必看] ... ...

[复制链接]
归沫 发表于 4 天前 | 显示全部楼层 |阅读模式
海报









译  名 飞驰人生2
片  名 Pegasus 2
年  代 2024
国  家 中国
类  别 剧情/喜剧/运动
语  言 汉语普通话
字  幕 中英硬字幕
评  分 7.7/10 from 515,092 users
链  接 https://movie.douban.com/subject/36369452
文件大小 4.18 GB
片  长 121 Min
导  演 韩寒 Han Han
主  演 沈腾 Teng Shen
     范丞丞 Chengcheng Fan
     尹正 Zheng Yin
     张本煜 Benyu Zhang
     孙艺洲 Yizhou Sun
     魏翔 Xiang Wei
     贾冰 Bing Jia
     郑恺 Kai Zheng
     冯绍峰 Shaofeng Feng
     黄景瑜 Johnny Huang
     刘昊然 Haoran Liu

简介

  五年前巴音布鲁克的悲壮一搏,传奇车手张驰(沈腾 饰)赢得了比赛,却输掉了一切。因铅封始终未能找到,他的成绩被组委会取消,为了谋生开办驾校又遭到网络恶意中伤,穷困潦倒,不闻一名。偶然的一天,一通电话让他重燃赛车手的热情。濒临停产的老头乐车厂厂长(贾冰 饰)是张驰的粉丝,他主动提出赞助让张驰的车队去拼搏最后一届巴音布鲁克。老头乐的员工厉小海(范丞丞 饰)天赋出众,在张驰、孙宇强(尹正 饰)、记星(张本煜 饰)和万年不及格的菜鸟驾校学员刘显德(孙艺洲 饰)联合训练下,小海成长迅速。

  只是通往胜利的道路充满艰辛与磨难,有的人过于理想,有的人太过现实……


Video
Format : HEVC
Format/Info : High Efficiency Video Coding
Codec ID : V_MPEGH/ISO/HEVC
Duration : 2 h 1 min
Bit rate : 4 186 kb/s
Width : 3 840 pixels
Height : 1 608 pixels
Display aspect ratio : 2.40:1
Frame rate mode : Constant
Frame rate : 24.000 FPS
Color space : YUV
Chroma subsampling : 4:2:0
Bit depth : 8 bits
Bits/(Pixel*Frame) : 0.028
Stream size : 3.54 GiB (84%)
Color range : Limited
Color primaries : BT.709
Transfer characteristics : BT.709
Matrix coefficients : BT.709

Audio
Format : E-AC-3 JOC
Format/Info : Enhanced AC-3 with Joint Object Coding
Commercial name : Dolby Digital Plus with Dolby Atmos
Codec ID : A_EAC3
Duration : 2 h 1 min
Bit rate mode : Constant
Bit rate : 768 kb/s
Channel(s) : 6 channels
Channel layout : L R C LFE Ls Rs
Sampling rate : 48.0 kHz
Frame rate : 31.250 FPS (1536 SPF)
Compression mode : Lossy
Stream size : 665 MiB (16%)
Service kind : Complete Main

截图






  

回复

使用道具 举报

小黑屋|百度云资源分享吧 ( 京ICP备15014721号-2 )

本网站所有资源来自网络,如无意中侵犯了您的权益,请发邮件至 [email protected],立即清除相关链接

GMT+8, 2024-7-14 18:08 , Processed in 0.086730 second(s), 27 queries .

Powered by Discuz! X3.2

© 2001-2013 Comsenz Inc.

快速回复 返回顶部 返回列表