百度云资源分享吧

 找回密码
 立即注册

[BT下载]闪电狗/雷霆战狗 Bolt.2008.3D.PLDUB.DUAL.720p.BluRay.x264-FLAME 3.28GB .. ...

[复制链接]
百度云资源 发表于 2017-1-8 06:45:25 | 显示全部楼层 |阅读模式

译  名 闪电狗/雷霆战狗/超级零零狗3D/明星狗
片  名 Bolt
年  代 2008
国  家 美国
类  别 动画/冒险/喜剧/家庭
语  言 英语
上映日期 2008-11-21(美国)
片  长 96 分钟
导  演 拜伦·霍华德 Byron Howard / Chris Williams
主  演 约翰·特拉沃尔塔 John Travolta
      麦莉·赛勒斯 Miley Cyrus
      Susie Essman
      马克·沃尔顿 Mark Walton
      马尔科姆·麦克道威尔 Malcolm McDowell
      詹姆斯·里普顿 James Lipton


简  介


  波特(约翰•卓佛塔配音)绝非一只普通的狗。在被女孩佩妮(麦莉•赛勒斯配音)带回家后,波特被她的父亲改造成一只“超级闪电狗”。它有强化的骨骼、风驰电掣的速度、无穷的力量。它要和佩妮一起去拯救被“绿眼人”绑架的父亲。波特靠着它的力量,战胜了无数强敌。
  当然,这一切只是在大屏幕上。实际上,波特与佩妮只不过是一起演出一部戏剧。波特并没有什么超能力,但它坚信自己的力量是真实的。一次拍摄后,混淆了真实与戏剧的波特冲出牢笼,要去大街上拯救佩妮,而它无法预知到,它将面临一个没有超能力的真实又危险的世界。


获奖情况


  第81届奥斯卡金像奖  (2009)
  最佳动画长片(提名) 拜伦·霍华德 / 克里斯·威廉姆斯


  第66届金球奖  (2009)
  电影类 最佳动画长片(提名)
  电影类 最佳原创歌曲(提名) 麦莉·赛勒斯 / 杰弗里·斯蒂尔


  第36届动画安妮奖  (2009)
  最佳动画长片(提名)
  最佳配音(提名) 马克·沃尔顿
  最佳分镜(提名) Joseph Mateo
  最佳艺术指导(提名) Paul A. Felix
  最佳动画效果(提名) Kevin Lee


Complete name : flame-bolt.2008.3d.pldub.dual.720p.bluray.x264.mkv
Format : Matroska
Format version : Version 4 / Version 2
File size : 3.28 GiB
Duration : 1 h 36 min
Overall bit rate : 4 871 kb/s
Encoded date : UTC 2017-01-06 19:40:44
Writing application : mkvmerge v9.7.1 (\'Pandemonium\') 64bit
Writing library : libebml v1.3.4 + libmatroska v1.4.5

Video
ID : 1
Format : AVC
Format/Info : Advanced Video Codec
Format profile : [email protected]
Format settings, CABAC : Yes
Format settings, ReFrames : 8 frames
Codec ID : V_MPEG4/ISO/AVC
Duration : 1 h 36 min
Bit rate : 3 590 kb/s
Width : 1 280 pixels
Height : 688 pixels
Display aspect ratio : 1.85:1
Frame rate mode : Constant
Frame rate : 23.976 (24000/1001) FPS
Color space : YUV
Chroma subsampling : 4:2:0
Bit depth : 8 bits
Scan type : Progressive
Bits/(Pixel*Frame) : 0.170
Stream size : 2.42 GiB (74%)
Writing library : x264 core 148 r2744 b97ae06
Encoding settings : cabac=1 / ref=8 / deblock=1:2:1 / analyse=0x3:0x133 / me=umh / subme=9 / psy=1 / psy_rd=0.50:0.00 / mixed_ref=1 / me_range=16 / chroma_me=1 / trellis=2 / 8x8dct=1 / cqm=0 / deadzone=21,11 / fast_pskip=0 / chroma_qp_offset=-2 / threads=12 / lookahead_threads=1 / sliced_threads=0 / nr=0 / decimate=1 / interlaced=0 / bluray_compat=0 / constrained_intra=0 / bframes=3 / b_pyramid=2 / b_adapt=2 / b_bias=0 / direct=3 / weightb=1 / open_gop=0 / weightp=2 / keyint=250 / keyint_min=23 / scenecut=40 / intra_refresh=0 / rc_lookahead=60 / rc=2pass / mbtree=1 / bitrate=3590 / ratetol=1.0 / qcomp=0.60 / qpmin=10 / qpmax=69 / qpstep=4 / cplxblur=20.0 / qblur=0.5 / ip_ratio=1.40 / aq=1:0.70
Language : English
Default : Yes
Forced : No

Audio #1
ID : 2
Format : AC-3
Format/Info : Audio Coding 3
Mode extension : CM (complete main)
Format settings, Endianness : Big
Codec ID : A_AC3
Duration : 1 h 36 min
Bit rate mode : Constant
Bit rate : 640 kb/s
Channel(s) : 6 channels
Channel positions : Front: L C R, Side: L R, LFE
Sampling rate : 48.0 kHz
Frame rate : 31.250 FPS (1536 spf)
Compression mode : Lossy
Stream size : 441 MiB (13%)
Title : Polish AC3 640 bkps
Language : Polish
Default : No
Forced : No

Audio #2
ID : 3
Format : AC-3
Format/Info : Audio Coding 3
Mode extension : CM (complete main)
Format settings, Endianness : Big
Codec ID : A_AC3
Duration : 1 h 36 min
Bit rate mode : Constant
Bit rate : 640 kb/s
Channel(s) : 6 channels
Channel positions : Front: L C R, Side: L R, LFE
Sampling rate : 48.0 kHz
Frame rate : 31.250 FPS (1536 spf)
Compression mode : Lossy
Stream size : 441 MiB (13%)
Title : English AC3 640 kbps
Language : English
Default : No
Forced : No

Text #1
ID : 4
Format : UTF-8
Codec ID : S_TEXT/UTF8
Codec ID/Info : UTF-8 Plain Text
Duration : 1 h 15 min
Bit rate : 0 b/s
Count of elements : 10
Stream size : 227 Bytes (0%)
Title : Forced
Language : Polish
Default : No
Forced : No

Text #2
ID : 5
Format : UTF-8
Codec ID : S_TEXT/UTF8
Codec ID/Info : UTF-8 Plain Text
Duration : 1 h 31 min
Bit rate : 54 b/s
Count of elements : 1123
Stream size : 36.2 KiB (0%)
Language : Polish
Default : No
Forced : No

Text #3
ID : 6
Format : UTF-8
Codec ID : S_TEXT/UTF8
Codec ID/Info : UTF-8 Plain Text
Duration : 1 h 31 min
Bit rate : 57 b/s
Count of elements : 1110
Stream size : 38.5 KiB (0%)
Language : English
Default : No
Forced : No

Menu
00:00:00.000 : :
00:02:31.651 : :
00:11:00.658 : :
00:13:47.201 : :
00:19:19.950 : :
00:24:18.873 : :
00:27:14.382 : :
00:29:48.702 : :
00:35:25.831 : :
00:42:09.568 : :
00:51:41.972 : :
01:01:58.338 : :
01:08:16.007 : :
01:13:02.711 : :
01:18:53.060 : :
01:29:36.828 : :
01:36:21.608 : :



Click Image To View Full Size



         Bolt.2008.3D.PLDUB.DUAL.720p.BluRay.x264-FLAME[bt天堂 www.btbt4.com].torrent (5.01 KB)
回复

使用道具 举报

小黑屋|百度云资源分享吧 ( 京ICP备15014721号-2 )

本网站所有资源来自网络,如无意中侵犯了您的权益,请发邮件至 804182043@qq.com,立即清除相关链接

GMT+8, 2017-10-17 05:54 , Processed in 0.308892 second(s), 24 queries .

Powered by Discuz! X3.2

© 2001-2013 Comsenz Inc.

快速回复 返回顶部 返回列表