百度云资源论坛

 找回密码
 立即注册

[双魂 / Walk With Me][BT下载][BD-MP4/2.4GB][原声粤语语中文字幕][...

[复制链接]
百度云资源 发表于 2019-11-21 17:15:22 | 显示全部楼层 |阅读模式
-->




◎译  名 双魂 / Walk With Me
◎片  名 雙魂
◎年  代 2018
◎产  地 中国香港 / 马来西亚
◎类  别 剧情 / 悬疑
◎语  言 粤语
◎上映日期 2019-08-22(中国香港)
◎豆瓣评分 0/10 from 0 users
◎编  剧 李勇昌 Ryon Lee / 曾莹莹
◎主  演 诗雅 Michelle Wai
       林德信 Alex Lam
       吴耀汉 Richard Ng
       戚玉武 Yuwu Qi
       吴浣仪 Yuen Yee Ng
       关宝慧 Emily Kwan
       吴嘉龙 Carl Wu
       秦顺薏
       庄雪梅 Rosa Chong
       朱健美
       陈芷琳
       高志森 Clifton Ko
       乔宝宝 Gill Mohindepaul Singh
       张启乐 Ben Cheung




◎标  签 香港 | 恐怖 | 卫诗雅 | 香港电影 | [華語] | 林德信 | 2019 | (待下)


◎简  介  


  当一个人的身体里住个极端的灵魂,到底会造成怎样的结果?
  马宥心(卫诗雅-饰)自小得不到父母的关爱,她在上班的制衣工厂里受尽其他工友欺凌却不敢反抗,又常感到有一个束著“孖辨”的小女孩跟着她。母亲(吴浣仪-饰)更对此表现得非常敏感,让宥心觉得“孖辨”就是意外流产的弟弟替身。正当疑云重重之际,宥心重遇阳光开朗的儿时玩伴沈旭(林德信-饰), 慢慢从他身上学会捍卫自己,偷偷向“孖辨”许愿希望它帮助杀死伤害她的人。没多久,沈旭在大屋的天台发现失踪多时的马父(吴耀汉-饰)尸体;同时,欺凌宥心的工厂女工又遭遇不测…








General
Unique ID                      : 178199628621776396513418588803677687411 (0x8610000583930ADFA07450FD350E0E73)
Complete name                  : D:\z\[微信公众号:匆匆电影]双魂.Walk.With.Me.2019.CHINESE.1080p.BluRay.X264-原声粤语官方中字.CHS\[微信公众号:匆匆电影]双魂.Walk.With.Me.2019.CHINESE.1080p.BluRay.X264-原声粤语官方中字.CHS.mp4
Format                         : Matroska
Format version                 : Version 2
File size                      : 2.33 GiB
Duration                       : 1h 31mn
Overall bit rate               : 3 640 Kbps
Encoded date                   : UTC 2019-11-21 04:15:57
Writing application            : mkvmerge v5.2.1 ('A Far Off Place') built on Jan  2 2012 23:21:10
Writing library                : libebml v1.2.3 + libmatroska v1.3.0
Attachements                   : small_cover.jpg / small_cover_land.jpg / cover.jpg / cover_land.jpg


Video
ID                             : 2
Format                         : AVC
Format/Info                    : Advanced Video Codec
Format settings, CABAC         : Yes
Format settings, ReFrames      : 4 frames
Muxing mode                    : Header stripping
Codec ID                       : V_MPEG4/ISO/AVC
Duration                       : 1h 31mn
Bit rate                       : 3 000 Kbps
Width                          : 1 920 pixels
Height                         : 1 080 pixels
Display aspect ratio           : 16:9
Frame rate mode                : Constant
Frame rate                     : 24.000 fps
Color space                    : YUV
Chroma subsampling             : 4:2:0
Bit depth                      : 8 bits
Scan type                      : Progressive
Bits/(Pixel*Frame)             : 0.060
Stream size                    : 1.87 GiB (80%)
Writing library                : x264 core 120 r2164 da19765
Encoding settings              : cabac=1 / ref=3 / deblock=1:0:0 / analyse=0x3:0x113 / me=hex / subme=7 / psy=1 / psy_rd=0.00:0.00 / mixed_ref=1 / me_range=16 / chroma_me=1 / trellis=2 / 8x8dct=1 / cqm=0 / deadzone=21,11 / fast_pskip=0 / chroma_qp_offset=0 / threads=48 / sliced_threads=0 / nr=0 / decimate=1 / interlaced=0 / bluray_compat=0 / constrained_intra=0 / bframes=3 / b_pyramid=2 / b_adapt=1 / b_bias=0 / direct=1 / weightb=1 / open_gop=0 / weightp=2 / keyint=240 / keyint_min=24 / scenecut=40 / intra_refresh=0 / rc_lookahead=40 / rc=2pass / mbtree=1 / bitrate=3000 / ratetol=1.0 / qcomp=0.60 / qpmin=0 / qpmax=69 / qpstep=4 / cplxblur=20.0 / qblur=0.5 / ip_ratio=1.40 / aq=1:1.00
Default                        : Yes
Forced                         : No


Audio
ID                             : 1
Format                         : AC-3
Format/Info                    : Audio Coding 3
Mode extension                 : CM (complete main)
Format settings, Endianness    : Big
Muxing mode                    : Header stripping
Codec ID                       : A_AC3
Duration                       : 1h 31mn
Bit rate mode                  : Constant
Bit rate                       : 640 Kbps
Channel(s)                     : 6 channels
Channel positions              : Front: L C R, Side: L R, LFE
Sampling rate                  : 48.0 KHz
Bit depth                      : 16 bits
Compression mode               : Lossy
Stream size                    : 419 MiB (18%)
Title                          : Cantonese
Language                       : Chinese
Default                        : Yes
Forced                         : No


                                                                                                                                                                                                        
                                                                                                                                                                                                                                                                                                                                                                                                                                                                                                                                                                                                                                                                                                                                                                                                                                                       3f21bb6cbecc0ef2a96b64bc7a8f48fc.torrent (96.48 KB)

回复

使用道具 举报

小黑屋|百度云资源分享吧 ( 京ICP备15014721号-2 )

本网站所有资源来自网络,如无意中侵犯了您的权益,请发邮件至 [email protected],立即清除相关链接

GMT+8, 2019-12-15 18:17 , Processed in 0.092728 second(s), 24 queries .

Powered by Discuz! X3.2

© 2001-2013 Comsenz Inc.

快速回复 返回顶部 返回列表