百度云资源论坛

 找回密码
 立即注册

[极限职业 / Extreme Job][BT下载][BD-MP4/4.5GB][原声韩语官方中字...

[复制链接]
百度云资源 发表于 2019-11-24 19:15:21 | 显示全部楼层 |阅读模式
-->




◎译  名 
/ 极端职业 / 极限行业 / 炸鸡特攻队(港) / 鸡不可失(台)

◎片  名 극한직업
◎年  代 2019
◎产  地 韩国
◎类  别 喜剧 / 动作 / 犯罪
◎语  言 韩语 / 汉语普通话 / 英语 / 日语
◎上映日期 2019-01-23(韩国)
◎IMDb评分  7.1/10 from 2797 users
◎片  长 111分钟
◎导  演 李炳宪 Byeong-Heon Lee
◎编  剧 裴世英 Se-yeong Bae
◎主  演 柳承龙 Seung-yong Ryoo
       李东辉 Dong-Hwi Lee
       李荷妮 Ha-nui Lee
       陈善圭 Jin Sun-kyu
       申河均 Ha-kyun Shin




◎标  签 韩国 | 喜剧 | 搞笑 | 警匪 | 犯罪 | 动作 | 2019 | 剧情


◎简  介  


  一支由5位掉漆警探组成的缉毒小组,因办事不力被长官钉得满头包,成天埋伏在毒贩巢穴对面的炸鸡店中监视,案情也毫无进展。既然每天都得待在炸鸡店,不如动手卖起炸鸡,看似无厘头的决定,竟让鲁蛇警探们意外找到事业第二春,卖到吓吓叫的神级美味炸鸡,让餐厅一夕爆红,订单电话接到手软!副业做太大的警探们有办法达成使命吗?对面的毒贩又是否会闻香而来呢?


◎获奖情况  


  第40届韩国电影青龙奖(2019)
  最佳影片(提名) 李炳宪
  最佳导演(提名) 李炳宪
  最佳男主角(提名) 柳承龙
  最佳男配角(提名) 陈善圭
  最佳女配角(提名) 李荷妮
  最佳新人男演员(提名) 孔明
  最佳剧本(提名)
  最佳剪辑(提名)


  第55届百想艺术大赏(2019)
  电影类 最佳男主角(提名) 柳承龙
  电影类 最佳男配角(提名) 陈善圭
  电影类 最佳女配角(提名) 李荷妮
  电影类 最佳新人男演员(提名) 孔明
  电影类 最佳编剧(提名) 裴世英










General
Unique ID                   : 245815513634188492621112295238925198957 (0xB8EE5889A53529D4B8C104EAB72EA66D)
Complete name               : D:\bt\[微信公众号:匆匆电影]极限职业.Extreme.Job.2019.KOREAN.1080p.BluRay.x264.原声韩语官方中字.Korean.CHS\[微信公众号:匆匆电影]极限职业.Extreme.Job.2019.KOREAN.1080p.BluRay.x264.原声韩语官方中字.Korean.CHS.mp4
Format                      : Matroska
Format version              : Version 2
File size                   : 4.38 GiB
Duration                    : 1 h 51 min
Overall bit rate            : 5 639 kb/s
Encoded date                : UTC 2019-11-24 07:06:37
Writing application         : mkvmerge v5.2.1 ('A Far Off Place') built on Jan  2 2012 23:21:10
Writing library             : libebml v1.2.3 + libmatroska v1.3.0
FileExtension_Invalid       : mkv mk3d mka mks


Video
ID                          : 2
Format                      : AVC
Format/Info                 : Advanced Video Codec
Format settings             : CABAC / 4 Ref Frames
Format settings, CABAC      : Yes
Format settings, ReFrames   : 4 frames
Muxing mode                 : Header stripping
Codec ID                    : V_MPEG4/ISO/AVC
Duration                    : 1 h 51 min
Bit rate                    : 5 000 kb/s
Width                       : 1 920 pixels
Height                      : 1 080 pixels
Display aspect ratio        : 16:9
Frame rate mode             : Constant
Frame rate                  : 24.000 FPS
Color space                 : YUV
Chroma subsampling          : 4:2:0
Bit depth                   : 8 bits
Scan type                   : Progressive
Bits/(Pixel*Frame)          : 0.100
Stream size                 : 3.79 GiB (87%)
Title                       : 【关注微信公众号:匆匆电影  微信号 sc6788sc 朋友圈分享】
Writing library             : x264 core 120 r2164 da19765
Encoding settings           : cabac=1 / ref=4 / deblock=1:-4:-3 / analyse=0x3:0x133 / me=hex / subme=7 / psy=1 / psy_rd=0.00:0.00 / mixed_ref=1 / me_range=16 / chroma_me=1 / trellis=2 / 8x8dct=1 / cqm=0 / deadzone=21,11 / fast_pskip=0 / chroma_qp_offset=0 / threads=12 / sliced_threads=0 / nr=0 / decimate=1 / interlaced=0 / bluray_compat=0 / constrained_intra=0 / bframes=3 / b_pyramid=2 / b_adapt=1 / b_bias=0 / direct=1 / weightb=1 / open_gop=0 / weightp=2 / keyint=240 / keyint_min=24 / scenecut=40 / intra_refresh=0 / rc_lookahead=40 / rc=2pass / mbtree=1 / bitrate=5000 / ratetol=1.0 / qcomp=0.60 / qpmin=0 / qpmax=69 / qpstep=4 / cplxblur=20.0 / qblur=0.5 / ip_ratio=1.40 / aq=1:1.00
Default                     : Yes
Forced                      : No


Audio
ID                          : 1
Format                      : AC-3
Format/Info                 : Audio Coding 3
Commercial name             : Dolby Digital
Muxing mode                 : Header stripping
Codec ID                    : A_AC3
Duration                    : 1 h 51 min
Bit rate mode               : Constant
Bit rate                    : 640 kb/s
Channel(s)                  : 6 channels
Channel layout              : L R C LFE Ls Rs
Sampling rate               : 48.0 kHz
Frame rate                  : 31.250 FPS (1536 SPF)
Bit depth                   : 16 bits
Compression mode            : Lossy
Stream size                 : 509 MiB (11%)
Service kind                : Complete Main
Default                     : Yes
Forced                      : No


                                                                                                                                                                                                        
                                                                                                                                                                                                                                                                                                                                                                                                                                                                                                                                                                                                                                                                                                                                                                                                                                                       a5dbcd432030d17f8b5be6622f011907.torrent (90.91 KB)

回复

使用道具 举报

小黑屋|百度云资源分享吧 ( 京ICP备15014721号-2 )

本网站所有资源来自网络,如无意中侵犯了您的权益,请发邮件至 [email protected],立即清除相关链接

GMT+8, 2019-12-15 18:50 , Processed in 0.091120 second(s), 24 queries .

Powered by Discuz! X3.2

© 2001-2013 Comsenz Inc.

快速回复 返回顶部 返回列表