百度云资源论坛

 找回密码
 立即注册

[星际探索 / 星际任务(港][BT下载][HD-MP4/8GB][原声英语精准中...

[复制链接]
百度云资源 发表于 2019-12-5 08:47:13 | 显示全部楼层 |阅读模式



◎译  名 星际探索 / 星际任务(港) / 星际探险 / 星际救援(台)
◎片  名 Ad Astra
◎年  代 2019
◎产  地 美国
◎类  别 科幻 / 悬疑 / 冒险 / 灾难
◎语  言 英语
◎上映日期 2019-08-29(威尼斯电影节) / 2019-09-20(美国) / 2019-12-06(中国大陆)
◎IMDb评分  7.0/10 from 68392 users
◎片  长 124分钟
◎导  演 詹姆士·格雷 James Gray
◎编  剧 詹姆士·格雷 James Gray / 伊森·格罗斯 Ethan Gross
◎主  演 布拉德·皮特 Brad Pitt
       汤米·李·琼斯 Tommy Lee Jones
       鲁丝·内伽 Ruth Negga
       唐纳德·萨瑟兰 Donald Sutherland
       丽芙·泰勒 Liv Tyler
       肖恩·布莱克默 Sean Blakemore
       约翰·芬 John Finn
       杰米·肯尼迪 Jamie Kennedy
       格雷格·布瑞克 Greg Bryk
       吉米·希尔兹 Kimmy Shields
       丽莎·盖伊·汉密尔顿 Lisa Gay Hamilton
       劳恩·迪恩 Loren Dean
       约翰·奥提兹 John Ortiz
       金伯莉·伊丽丝 Kimberly Elise
       丹尼尔·萨乌利 Daniel Sauli
       安妮·麦克代尼尔斯 Anne McDaniels
       艾莉森·瑞德 Alyson Reed
       唐尼·科沙瓦茨 Donnie Keshawarz
       马洛里露 Mallory Low
       希拉·M·洛克哈特 Sheila M. Lockhart




◎标  签 科幻 | 太空 | 宇宙 | 美国 | 2019 | 冒险 | 惊悚 | 星际


◎简  介  


  地球上接连出现神秘怪象,科学家发现某种失控的反物质反应正在威胁整个太阳系,人类生存极度堪忧……地球生死攸关之际,天才航天工程师罗伊(布拉德·皮特 饰)被派往外太空,试图揭开谜团拯救人类。这是一场横跨地球、月球、火星、海王星,穿越整个太阳系的硬核冒险,一路危机重重险象环生,罗伊直面爆炸、陨石、月球飙车枪战、神秘生物等意想不到的考验,还找回了失联20年的父亲!当年罗伊的父亲(汤米·李·琼斯 饰)离开地球探寻外星智慧生物,结果任务失败,消失在茫茫宇宙之中。如今父子重逢,罗伊在太空深处发现了不为人知的秘密,渐渐触达所有事件的终极真相……


◎获奖情况  


  第76届威尼斯电影节(2019)
  主竞赛单元 金狮奖 (提名) 詹姆斯·格雷










General
Unique ID                   : 207552428714503475670735863498343759480 (0x9C2524CCBEA39868AEF3E831878CBE78)
Complete name               : D:\bt\星际探索 Ad.Astra.2019.1080p.AMZN.WEB-DL.DDP5.1.x264-原声英语精准中英双字幕.Eng.Chs\星际探索 Ad.Astra.2019.1080p.AMZN.WEB-DL.DDP5.1.x264-原声英语精准中英双字幕.Eng.Chs.mp4
Format                      : Matroska
Format version              : Version 2
File size                   : 7.76 GiB
Duration                    : 2 h 5 min
Overall bit rate            : 8 872 kb/s
Encoded date                : UTC 2019-12-04 12:26:53
Writing application         : mkvmerge v5.2.1 ('A Far Off Place') built on Jan  2 2012 23:21:10
Writing library             : libebml v1.2.3 + libmatroska v1.3.0
Cover                       : Yes
Attachments                 : small_cover.jpg / small_cover_land.jpg / cover.jpg / cover_land.jpg
FileExtension_Invalid       : mkv mk3d mka mks


Video
ID                          : 1
Format                      : AVC
Format/Info                 : Advanced Video Codec
Format profile              : 1
Format settings             : CABAC / 4 Ref Frames
Format settings, CABAC      : Yes
Format settings, ReFrames   : 4 frames
Muxing mode                 : Header stripping
Codec ID                    : V_MPEG4/ISO/AVC
Duration                    : 2 h 5 min
Bit rate                    : 7 999 kb/s
Width                       : 1 920 pixels
Height                      : 1 080 pixels
Display aspect ratio        : 16:9
Frame rate mode             : Constant
Frame rate                  : 23.976 (24000/1001) FPS
Color space                 : YUV
Chroma subsampling          : 4:2:0
Bit depth                   : 8 bits
Scan type                   : Progressive
Bits/(Pixel*Frame)          : 0.161
Stream size                 : 6.71 GiB (86%)
Title                       : 【关注微信公众号:匆匆电影  微信号 sc6788sc 朋友圈分享】
Writing library             : x264 core 120 r2164 da19765
Encoding settings           : cabac=1 / ref=4 / deblock=1:-4:-3 / analyse=0x3:0x133 / me=hex / subme=7 / psy=1 / psy_rd=0.00:0.00 / mixed_ref=1 / me_range=16 / chroma_me=1 / trellis=2 / 8x8dct=1 / cqm=0 / deadzone=21,11 / fast_pskip=0 / chroma_qp_offset=0 / threads=12 / sliced_threads=0 / nr=0 / decimate=1 / interlaced=0 / bluray_compat=0 / constrained_intra=0 / bframes=3 / b_pyramid=2 / b_adapt=1 / b_bias=0 / direct=1 / weightb=1 / open_gop=0 / weightp=2 / keyint=240 / keyint_min=23 / scenecut=40 / intra_refresh=0 / rc_lookahead=40 / rc=2pass / mbtree=1 / bitrate=7999 / ratetol=1.0 / qcomp=0.60 / qpmin=0 / qpmax=69 / qpstep=4 / cplxblur=20.0 / qblur=0.5 / ip_ratio=1.40 / aq=1:1.00
Default                     : Yes
Forced                      : No


Audio #1
ID                          : 2
Format                      : AC-3
Format/Info                 : Audio Coding 3
Commercial name             : Dolby Digital
Muxing mode                 : Header stripping
Codec ID                    : A_AC3
Duration                    : 2 h 5 min
Bit rate mode               : Constant
Bit rate                    : 640 kb/s
Channel(s)                  : 6 channels
Channel layout              : L R C LFE Ls Rs
Sampling rate               : 48.0 kHz
Frame rate                  : 31.250 FPS (1536 SPF)
Bit depth                   : 16 bits
Compression mode            : Lossy
Stream size                 : 573 MiB (7%)
Title                       : AC3
Service kind                : Complete Main
Default                     : No
Forced                      : No


Audio #2
ID                          : 3
Format                      : AC-3
Format/Info                 : Audio Coding 3
Commercial name             : Dolby Digital
Muxing mode                 : Header stripping
Codec ID                    : A_AC3
Duration                    : 2 h 5 min
Bit rate mode               : Constant
Bit rate                    : 384 kb/s
Channel(s)                  : 6 channels
Channel layout              : L R C LFE Ls Rs
Sampling rate               : 48.0 kHz
Frame rate                  : 31.250 FPS (1536 SPF)
Bit depth                   : 16 bits
Compression mode            : Lossy
Stream size                 : 344 MiB (4%)
Title                       : AAC
Language                    : English
Service kind                : Complete Main
Default                     : No
Forced                      : No


                                                                                                                                                                                                        
                                                                                                                                                                                                                                                                                                                                                                                                                                                                                                                                                                                                                                                                                                                                                                                                                                                      
1958dcb5f423674ceb8764e7da2d652b.torrent (169.88 KB)

回复

使用道具 举报

小黑屋|百度云资源分享吧 ( 京ICP备15014721号-2 )

本网站所有资源来自网络,如无意中侵犯了您的权益,请发邮件至 [email protected],立即清除相关链接

GMT+8, 2019-12-15 10:26 , Processed in 0.087910 second(s), 24 queries .

Powered by Discuz! X3.2

© 2001-2013 Comsenz Inc.

快速回复 返回顶部 返回列表